ML
     
  Уважаемый Гость!
Вы можете поддержать проект и зарегистрироваться у наших партнеров - онлайн-стратегия MyLands. При регистрации в игре Вы получите код, который сможете активировать после регистрации на pirat.ca и получить 1000 дублонов.

Ваш код:
e93cd9e43017f251127f220889864c05934e61c6
 
     

Оккупация 101 / Occupation 101 (Абдулла Омейш / Abdallah Omeish, Суфьян Омейш / Sufyan Omeish) [2006 г., документальный, DVDRip] VO + Sub (Eng)

Ответить на тему
 
Автор
Сообщение

Пост 09-Май-2014 00:10

[Q] 

AnastasWolf

-Оккупация 101 / Occupation 101-Самый страшный враг знания - не его отсутствие... а иллюзия его наличия. Стивен Хокинг- Производство: США
Жанр: документальный
Год выпуска: 2006 г.
Продолжительность: 01:30:01
Мировая премьера: 25 марта 2006
Перевод: Профессиональный (одноголосый, закадровый)
Режиссёр: Абдулла Омейш / Abdallah Omeish, Суфьян Омейш / Sufyan Omeish-В ролях: Джеймс Экинс, Арик Ашерман, Bishop Barltlett Jr., Phyllis Bennis, Peter Boukaert, Френсис Бойл, Шэрон Бурк, Ноам Чомски, отец Дрю Кристиансен, Рэмси Кларк-Описание: Документальная лента-победительница восьми кинофестивалей рассказывает о фактах, старательно умалчиваемых мировыми средствами массовой информации касательно израильско-палестинского конфликта и образования одного государства за счёт уничтожения другого. "Оккупация 101" обличает тиражируемые в СМИ ложь и мифы о положении в регионе. Фильм демонстрирует, что ни евреи, ни палестинцы как отдельно взятые народы не являются виновниками почти векового противостояния. Причина всего произошедшего и происходящего на землях Палестины - движение-прародитель фашизма - сионизм.
Данный фильм НЕ против евреев и НЕ против арабов. Этот фильм против сионизма и его ужасных последствий.
-Качество видео: DVDRip
Контейнер: AVI
Видео кодек: DivX
Аудио кодек: AC3
Видео: 688x384, 1842 kbps, 29.970 fps, 0.233 bit/pixel
Аудио: 320 kbps, 2 ch, 48.0 kHz
Cубтитры: английские
Общее
Полное имя : Оккупация 101.avi
Формат : AVI
Формат/Информация : Audio Video Interleave
Размер файла : 1,37 Гбайт
Продолжительность : 1 ч. 30 м.
Общий поток : 2174 Кбит/сек
Программа кодирования : FairUse Wizard
Видео
Идентификатор : 0
Формат : MPEG-4 Visual
Параметр BVOP формата : 1
Параметр QPel формата : Нет
Параметр GMC формата : Без точки перехода
Параметр матрицы формата : Default (H.263)
Режим смешивания : Сжатый битовый поток
Идентификатор кодека : DX50
Идентификатор кодека/Подсказка : DivX 5
Продолжительность : 1 ч. 30 м.
Битрейт : 1842 Кбит/сек
Ширина : 688 пикселей
Высота : 384 пикселя
Соотношение сторон : 16:9
Частота кадров : 29,970 кадров/сек
Цветовое пространство : YUV
Субдискретизация насыщенности : 4:2:0
Битовая глубина : 8 бит
Тип развёртки : Прогрессивная
Метод сжатия : С потерями
Бит/(Пиксели*Кадры) : 0.233
Размер потока : 1,16 Гбайт (85%)
Библиотека кодирования : DivX 6.8.5 (UTC 2009-08-20)
Аудио
Идентификатор : 1
Формат : AC-3
Формат/Информация : Audio Coding 3
Расширение режима : CM (complete main)
Параметр Endianness формата : Big
Идентификатор кодека : 2000
Продолжительность : 1 ч. 30 м.
Вид битрейта : Постоянный
Битрейт : 320 Кбит/сек
Каналы : 2 канала
Расположение каналов : Front: L R
Частота : 48,0 КГц
Битовая глубина : 16 бит
Метод сжатия : С потерями
Размер потока : 206 Мбайт (15%)
Выравнивание : Разделение по промежуткам
Продолжительность промежутка : 33 мс. (1,00 видеокадр)
Время предзагрузки промежутка : 500 мс.
Download / Скачать

Хотите скачать бесплатно? Зарегистрируйтесь на сайте (ссылка на регистрацию). Pirat.ca - самый быстрый торрент трекер в рунете!

Как скачивать  ·   Что такое торрент  ·   Рейтинг и ограничения

Alex355

Морской Волк

Пост 15-Май-2014 12:11 (спустя 6 дней)

[Q] 

[Профиль]  [ЛС] 
Показать сообщения:    
Ответить на тему

Текущее время: Сегодня 04:29

Часовой пояс: GMT + 4



Вы не можете начинать темы
Вы не можете отвечать на сообщения
Вы не можете редактировать свои сообщения
Вы не можете удалять свои сообщения
Вы не можете голосовать в опросах
Вы не можете прикреплять файлы к сообщениям
Вы не можете скачивать файлы

▼ Вниз