ML
     
  Уважаемый Гость!
Вы можете поддержать проект и зарегистрироваться у наших партнеров - онлайн-стратегия MyLands. При регистрации в игре Вы получите код, который сможете активировать после регистрации на pirat.ca и получить 1000 дублонов.

Ваш код:
e93cd9e43017f251127f220889864c05934e61c6
 
     

Откровения лучших порномоделей / Aroused (Дебора Андерсон / Deborah Anderson) [2013 г., документальный, WEB-DLRip] MVO

Ответить на тему
 
Автор
Сообщение

Пост 16-Май-2014 18:28

[Q] 

Seva78

-Откровения лучших порномоделей / Aroused-- Производство: США, Cherry On Top
Жанр: документальный
Год выпуска: 2013 г.
Продолжительность: 01:08:00
Мировая премьера: 20 февраля 2013
Российская премьера: 20 февраля 2014
Перевод: Профессиональный (многоголосый, закадровый)
Режиссер: Дебора Андерсон / Deborah Anderson
-В ролях: Лиза Энн, Джесси Джейн, Алексис Тексас, Элли Хэйз, Бруклин Ли, Эйприл О’Нил, Нолли, Франческа Ли, Асфиксия Нуар, Мисти Стоун, Эш Халливуд, Тиган, Кэйден Кросс, Белладонна, Кацуми, Таня Тейт-Описание: Эксклюзивный доступ и возможность познакомиться ближе с 16-ю самыми успешными женщинами киноиндустрии для взрослых. В процессе интимной фотосессии в непринужденном разговоре они проливают свет на свою жизнь, а всемирно известный фотограф Дебора Андерсон становится летописцем их историй.Откровенные рассказы о жизни и ответы на вопросы, почему они выбрали именно этот путь, что послужило причиной выбора, впечатления о первом опыте — героини фильма всегда были сдержанны и никогда ранее не давали интервью о своей частной жизни. Дебора стала первым режиссером, которому удалось вывести девушек на откровенную беседу, которая позволяет поделиться со зрителями чем-то гораздо большим, чем просто просто видом обнаженного тела на экране.Истинная внутренняя красота и уязвимость девушек, тела которых вам так хорошо знакомы, затрагивают глубины души. Их искренность буквально пьянит. После того, как вы услышите их рассказы, вы больше никогда не сможете смотреть на них как прежде.Фотограф Дебора Андерсон работала со многими знаменитостями, среди которых Джуд Лоу, Моби, Джордж Клуни, Кид Рок и др. Более того перед ее объективом в откровенном виде позировали Линси Лохан, Шэрон Стоун и Синди Кроуфорд.-
Качество видео: WEB-DLRip
Контейнер: AVI
Видео кодек: XviD
Аудио кодек: AC3
Видео: MPEG-4 Visual at 2058 Кбит/сек 720 x 400 (1.800) at 25.000 fps
Аудио: AC-3 at 384 Кбит/сек 2 канала, 48,0 КГц
Аудио #2: AC-3 at 384 Кбит/сек 2 канала, 48,0 КГц (англ)
Cубтитры: отсутствуют
Формат : AVI
Формат/Информация : Audio Video Interleave
Размер файла : 1,37 Гбайт
Продолжительность : 1 ч. 8 м.
Общий поток : 2840 Кбит/сек
Программа кодирования : VirtualDubMod 1.5.10.2 (build 2540/release)
Библиотека кодирования : VirtualDubMod build 2540/release
Видео
Идентификатор : 0
Формат : MPEG-4 Visual
Профиль формата : Advanced [email protected]
Параметр BVOP формата : 2
Параметр QPel формата : Нет
Параметр GMC формата : Без точки перехода
Параметр матрицы формата : Default (MPEG)
Идентификатор кодека : XVID
Идентификатор кодека/Подсказка : XviD
Продолжительность : 1 ч. 8 м.
Битрейт : 2058 Кбит/сек
Ширина : 720 пикселей
Высота : 400 пикселей
Соотношение сторон : 16:9
Частота кадров : 25,000 кадров/сек
Цветовое пространство : YUV
Субдискретизация насыщенности : 4:2:0
Битовая глубина : 8 бит
Тип развёртки : Прогрессивная
Метод сжатия : С потерями
Бит/(Пиксели*Кадры) : 0.286
Размер потока : 1015 Мбайт (72%)
Библиотека кодирования : XviD 1.2.1 (UTC 2008-12-04)
Аудио #1
Идентификатор : 1
Формат : AC-3
Формат/Информация : Audio Coding 3
Расширение режима : CM (complete main)
Параметр Endianness формата : Big
Идентификатор кодека : 2000
Продолжительность : 1 ч. 8 м.
Вид битрейта : Постоянный
Битрейт : 384 Кбит/сек
Каналы : 2 канала
Расположение каналов : Front: L R
Частота : 48,0 КГц
Битовая глубина : 16 бит
Метод сжатия : С потерями
Размер потока : 189 Мбайт (14%)
Выравнивание : Разделение по промежуткам
Продолжительность промежутка : 40 мс. (1,00 видеокадр)
Время предзагрузки промежутка : 500 мс.
Аудио #2
Идентификатор : 2
Формат : AC-3
Формат/Информация : Audio Coding 3
Расширение режима : CM (complete main)
Параметр Endianness формата : Big
Идентификатор кодека : 2000
Продолжительность : 1 ч. 8 м.
Вид битрейта : Постоянный
Битрейт : 384 Кбит/сек
Каналы : 2 канала
Расположение каналов : Front: L R
Частота : 48,0 КГц
Битовая глубина : 16 бит
Метод сжатия : С потерями
Размер потока : 189 Мбайт (14%)
Выравнивание : Разделение по промежуткам
Продолжительность промежутка : 40 мс. (1,00 видеокадр)
Время предзагрузки промежутка : 500 мс.
Ограничение для просмотра +18
Download / Скачать

Хотите скачать бесплатно? Зарегистрируйтесь на сайте (ссылка на регистрацию). Pirat.ca - самый быстрый торрент трекер в рунете!

Как скачивать  ·   Что такое торрент  ·   Рейтинг и ограничения

got70

Легенда

752

Пост 16-Май-2014 19:26 (спустя 58 минут)

[Q] 

Ограничение для просмотра +18-это про нас Раздающему респект! Пиратка рулез!!!

_________________
Добро непременно победит зло!Непременно...Затем поставит на колени,и зверски УБЬЁТ!
[Профиль]  [ЛС] 

StenST

Морской Волк

Пост 17-Май-2014 00:51 (спустя 5 часов)

[Q] 

Как говорил прораб: любую маленькую дырдочку, сначало надо хорошо отшлифовать... отшлифовать... от..... и только потом заделать наглухо! иначе она может дать трещину и дом рассыпется!
[Профиль]  [ЛС] 

Seva78 ®

1517

Пост 17-Май-2014 20:53 (спустя 20 часов)

[Q] 

got70, StenST, aa ay

_________________
[Профиль]  [ЛС] 

cimi

Пост 22-Май-2014 10:40 (спустя 4 дня)

[Q] 

Кто здесь? Спасибо!!! Как думаете, под портвейн или ром? пока не определюсь, смотреть не могу.

_________________
[Профиль]  [ЛС] 

Seva78 ®

1517

Пост 23-Май-2014 22:19 (спустя 1 день 11 часов)

[Q] 

cimi, Зуб даю... rum

_________________
[Профиль]  [ЛС] 
Показать сообщения:    
Ответить на тему

Текущее время: Сегодня 04:24

Часовой пояс: GMT + 4



Вы не можете начинать темы
Вы не можете отвечать на сообщения
Вы не можете редактировать свои сообщения
Вы не можете удалять свои сообщения
Вы не можете голосовать в опросах
Вы не можете прикреплять файлы к сообщениям
Вы не можете скачивать файлы

▼ Вниз