ML
     
  Уважаемый Гость!
Вы можете поддержать проект и зарегистрироваться у наших партнеров - онлайн-стратегия MyLands. При регистрации в игре Вы получите код, который сможете активировать после регистрации на pirat.ca и получить 1000 дублонов.

Ваш код:
c3360d664ceb84802c84b88ed062a5d134e2ba97
 
     

Колесо времени / Rad Der Zeit (Вернер Херцог / Werner Herzog) [2003 г., документальный, DVDRip] VO [Sub (Ger)]

Ответить на тему
 
Автор
Сообщение

Пост 17-Май-2014 18:48

[Q] 

AAWolf

-Колесо времени / Rad Der Zeit- Год выпуска: 2003 г.
Производство: Германия , Австрия , Италия
Жанр: документальный
Продолжительность: 01:20:02
Мировая премьера: 29 августа 2003
Перевод: Профессиональный (одноголосый, закадровый)
Режиссер: Вернер Херцог / Werner Herzog-В ролях: Далай Лама, Лама Лундуп Восер, Такна Джигме Сангпо, Маттье Рикард, Мадхурита Неги Ананд, Тензин Дхаргие, Вен. Геше, Вернер Херцог, Манфред Клелль, Чунгдак Д. Корен-Описание: Название этого документального фильма режиссёр относит к ритуалу, помогающему раскрыть свой внутренний мир. В основе фильма лежит буддийский обряд, на который собирается примерно 500 тысяч паломников из разных стран.
Большая часть фильма представляет собой гипнотическое море лиц, поскольку камера Херцога пробирается сквозь толпы желающих увидеть ритуал или непосредственно принять в нём участие. Также показаны трудности на пути к месту проведения ритуала, создание Мандалы и в конце церемонии - её разрушение, как символ эфемерной природы жизни.
-Качество видео: DVDRip
Контейнер: AVI
Видео кодек: XviD
Аудио кодек: MP3
Видео: 608x352, 1103 kbps, 25 fps, 0.206 bit/pixel
Аудио: 109 kbps, 2 ch, 48.0 kHz
Cубтитры: немецкие
Формат субтитров: hardsub (неотключаемые)
Доп. информация о субтитрах: на английскую речь
Общее
Полное имя : Колесо времени.2003.[DVDRip].avi
Формат : AVI
Формат/Информация : Audio Video Interleave
Размер файла : 701 Мбайт
Продолжительность : 1 ч. 20 м.
Режим общего битрейта : Переменный
Общий поток : 1224 Кбит/сек
Программа кодирования : VirtualDubMod 1.5.4.1 (build 2178/release)
Библиотека кодирования : VirtualDubMod build 2178/release
Видео
Идентификатор : 0
Формат : MPEG-4 Visual
Профиль формата : Advanced [email protected]
Параметр BVOP формата : 1
Параметр QPel формата : Нет
Параметр GMC формата : Без точки перехода
Параметр матрицы формата : Выборочная
Идентификатор кодека : XVID
Идентификатор кодека/Подсказка : XviD
Продолжительность : 1 ч. 20 м.
Битрейт : 1103 Кбит/сек
Ширина : 608 пикселей
Высота : 352 пикселя
Соотношение сторон : 1,727
Частота кадров : 25,000 кадров/сек
Цветовое пространство : YUV
Субдискретизация насыщенности : 4:2:0
Битовая глубина : 8 бит
Тип развёртки : Прогрессивная
Метод сжатия : С потерями
Бит/(Пиксели*Кадры) : 0.206
Размер потока : 631 Мбайт (90%)
Библиотека кодирования : XviD 1.2.1 (UTC 2008-12-04)
Аудио
Идентификатор : 1
Формат : MPEG Audio
Версия формата : Version 1
Профиль формата : Layer 3
Режим : Joint stereo
Расширение режима : MS Stereo
Идентификатор кодека : 55
Идентификатор кодека/Подсказка : MP3
Продолжительность : 1 ч. 20 м.
Вид битрейта : Переменный
Битрейт : 109 Кбит/сек
Номинальный битрейт : 128 Кбит/сек
Каналы : 2 канала
Частота : 48,0 КГц
Метод сжатия : С потерями
Размер потока : 62,2 Мбайт (9%)
Выравнивание : Соединение по промежуткам
Продолжительность промежутка : 24 мс. (0,60 видеокадр)
Время предзагрузки промежутка : 512 мс.
Библиотека кодирования : LAME3.98r
Настройки программы : -m j -V 4 -q 2 -lowpass 17 --abr 128
Download / Скачать

Хотите скачать бесплатно? Зарегистрируйтесь на сайте (ссылка на регистрацию). Pirat.ca - самый быстрый торрент трекер в рунете!

Как скачивать  ·   Что такое торрент  ·   Рейтинг и ограничения

AnastasWolf

3476

Пост 24-Авг-2014 23:18 (спустя 3 месяца 7 дней)

[Q] 

Очень интересно!
Для тех, кто занимается самопознанием.

_________________
[Профиль]  [ЛС] 
Показать сообщения:    
Ответить на тему

Текущее время: Сегодня 10:09

Часовой пояс: GMT + 4



Вы не можете начинать темы
Вы не можете отвечать на сообщения
Вы не можете редактировать свои сообщения
Вы не можете удалять свои сообщения
Вы не можете голосовать в опросах
Вы не можете прикреплять файлы к сообщениям
Вы не можете скачивать файлы

▼ Вниз