ML
     
  Уважаемый Гость!
Вы можете поддержать проект и зарегистрироваться у наших партнеров - онлайн-стратегия MyLands. При регистрации в игре Вы получите код, который сможете активировать после регистрации на pirat.ca и получить 1000 дублонов.

Ваш код:
34514219cfad5497a1822ecc1269bea77988f9aa
 
     

Я и другие (Феликс Соболев) [1971 г., документальный, SATRip]

Ответить на тему
 
Автор
Сообщение

Пост 20-Май-2014 02:02

[Q] 

AAWolf

-Я и другие-Мы видим то, что хотим увидеть...- Год выпуска: 1971 г.
Производство: СССР , Киевская киностустудия научно-популярных фильмов
Жанр: документальный
Продолжительность: 00:48:55
Перевод: Не требуется
Режиссёр: Феликс Соболев-В ролях: Кандидат психологических наук В. Мухина, испытуемые-Описание: Этот фильм пролежал на полке больше 20 лет потому, что раскрывал секреты воздействия на массовое сознание.
Насколько мы самостоятельны в своих суждениях?... Как влияют на нас другие люди?...
Фильм приглашает вас взглянуть на себя со стороны. Быть как все - естественное стремление ребёнка. Он часто поддается внушению и выдает чужое мнение за своё. Но для взрослого - это потеря личности, приспособленчество, конформизм, формирующий психологию раба. Увидев себя в других, вы, быть может, задумаетесь о том, что знаете о себе, о своей психологии, насколько самостоятельны в своих суждениях и как влияют на вас другие люди.
-
Качество видео: SATRip
Контейнер: AVI
Видео кодек: DivX
Аудио кодек: MP3
Видео: 544x408, 1000 kbps, 25 fps, 0.180 bit/pixel
Аудио: 128 kbps, 2 ch, 48.0 kHz
Cубтитры: отсутствуют
Общее
Полное имя : Я и другие.1971.[SATRip].avi
Формат : AVI
Формат/Информация : Audio Video Interleave
Размер файла : 398 Мбайт
Продолжительность : 48 м.
Общий поток : 1138 Кбит/сек
Программа кодирования : VirtualDubModRus 1.5.10.2 (build 2540/release)
Библиотека кодирования : VirtualDub build 28204/release
Видео
Идентификатор : 0
Формат : MPEG-4 Visual
Параметр BVOP формата : 1
Параметр QPel формата : Нет
Параметр GMC формата : Без точки перехода
Параметр матрицы формата : Default (H.263)
Режим смешивания : Сжатый битовый поток
Идентификатор кодека : DX50
Идентификатор кодека/Подсказка : DivX 5
Продолжительность : 48 м.
Битрейт : 1000 Кбит/сек
Ширина : 544 пикселя
Высота : 408 пикселей
Соотношение сторон : 4:3
Частота кадров : 25,000 кадров/сек
Цветовое пространство : YUV
Субдискретизация насыщенности : 4:2:0
Битовая глубина : 8 бит
Тип развёртки : Прогрессивная
Метод сжатия : С потерями
Бит/(Пиксели*Кадры) : 0.180
Размер потока : 350 Мбайт (88%)
Библиотека кодирования : DivX 6.7.0 (UTC 2007-09-20)
Аудио
Идентификатор : 1
Формат : MPEG Audio
Версия формата : Version 1
Профиль формата : Layer 3
Идентификатор кодека : 55
Идентификатор кодека/Подсказка : MP3
Продолжительность : 48 м.
Вид битрейта : Постоянный
Битрейт : 128 Кбит/сек
Каналы : 2 канала
Частота : 48,0 КГц
Метод сжатия : С потерями
Задержка видео : 1 с. 0 мс.
Размер потока : 44,8 Мбайт (11%)
Выравнивание : Разделение по промежуткам
Продолжительность промежутка : 40 мс. (1,00 видеокадр)
Время предзагрузки промежутка : 500 мс.
Приз и диплом Международного кинофестиваля, г. Оломоуц, ЧССР, 1971г.
Download / Скачать

Хотите скачать бесплатно? Зарегистрируйтесь на сайте (ссылка на регистрацию). Pirat.ca - самый быстрый торрент трекер в рунете!

Как скачивать  ·   Что такое торрент  ·   Рейтинг и ограничения

AnastasWolf

3475

Пост 28-Май-2014 04:14 (спустя 8 дней)

[Q] 

За раздачу - Спасибо!!! Супер!

_________________


Последний раз редактировалось: AnastasWolf (2014-06-16 08:33), всего редактировалось 1 раз
[Профиль]  [ЛС] 

igra

Корсар

Пост 11-Июн-2014 01:11 (спустя 13 дней)

[Q] 

Интересная документальная хроника,в которой есть смысл.
[Профиль]  [ЛС] 

AnastasWolf

3475

Пост 15-Июн-2014 03:22 (спустя 4 дня)

[Q] 

igra, не назвала бы это хроникой.
Несколько показательных экспериментов, проведённых кандидатом психологических наук, засняли с разными группами людей, в разной обстановке и исследовали их поведение на поведении детей в группе и вне её.

Хроника (греч. Χρόνος — время) — историческое описание событий в хронологическом порядке.

_________________
[Профиль]  [ЛС] 

igra

Корсар

Пост 16-Фев-2015 02:56 (спустя 8 месяцев)

[Q] 

547639igra, не назвала бы это хроникой.
Несколько показательных экспериментов, проведённых кандидатом психологических наук, засняли с разными группами людей, в разной обстановке и исследовали их поведение на поведении детей в группе и вне её.

Хроника (греч. Χρόνος — время) — историческое описание событий в хронологическом порядке.
Спасибо!Любое мнение имеет смысл.
[Профиль]  [ЛС] 
Показать сообщения:    
Ответить на тему

Текущее время: Сегодня 07:54

Часовой пояс: GMT + 4



Вы не можете начинать темы
Вы не можете отвечать на сообщения
Вы не можете редактировать свои сообщения
Вы не можете удалять свои сообщения
Вы не можете голосовать в опросах
Вы не можете прикреплять файлы к сообщениям
Вы не можете скачивать файлы

▼ Вниз