ML
     
  Уважаемый Гость!
Вы можете поддержать проект и зарегистрироваться у наших партнеров - онлайн-стратегия MyLands. При регистрации в игре Вы получите код, который сможете активировать после регистрации на pirat.ca и получить 1000 дублонов.

Ваш код:
a978488e62322cd72e113ab723b8a7fdc10eb9b9
 
     

Атлантида: Конец мира, рождение легенды / Atlantis: End of a World, Birth of a Legend (Тони Митчел / Tony Mitchell) [2011 г., драма, художественно-документальный, HDRip] MVO

Ответить на тему
 
Автор
Сообщение

Пост 12-Янв-2012 16:48

[Q] 

Sirota

Легенда

Атлантида: Конец мира, рождение легенды / Atlantis: End of a World, Birth of a Legend Год выпуска: 2011
Мировая премьера: 8 мая 2011
Производство: США, Германия, Франция, Великобритания, ЮАР
Жанр: драма, художественно-документальный
Продолжительность серии: 01:28:47

Перевод: профессиональный (полное дублирование)
Субтитры: отсутствуют
Режиссер: Тони Митчел / Tony Mitchell
В ролях: Стефани Леонидас, Рис Ричи, Лэнгли Кирквуд, Айседора Вервей, Натали Бекер, Тони Капрари, Инге Бекманн, Дилан Эди, Вейн Харрисон, George Jackos
Описание: Фильм о самом страшном стихийном бедствии античного мира, породившем миф об Атлантиде. В его создании принимали участие известные ученые – историки и археологи. Они помогли воссоздать и впервые представить на экране экзотический мир минойцев – народа мореплавателей с высокоразвитой и сложной системой религиозного культа и богатыми торговыми традициями. Актерам, исполнившим главные роли в фильме, удалось передать гордый и независимый характер минойцев, беззаветно любящих свою родину и готовых отдать жизнь за своих любимых. Вместе с героями фильма зрители станут очевидцами одного из самых страшных стихийных бедствий в истории человечества, воссозданного с помощью новейших СGI-технологий.
Сэмпл IMDB КиноПоиск
Источник/Качество: HDRip
Формат: AVI
Видео кодек: XviD
Аудио кодек: AC3
Видео: 720x400 (1.80:1), 25 fps, XviD MPEG-4 ~2067 kbps avg, 0.29 bit/pixel
Аудио: 48 kHz, MPEG Layer 3, 2 ch, ~128.00 kbps avg
General
Format : AVI
Format/Info : Audio Video Interleave
File size : 1.37 GiB
Duration : 1h 28mn
Overall bit rate : 2 205 Kbps
Writing application : VirtualDubMod 1.5.10.3 (build 2550/release)
Writing library : VirtualDubMod build 2550/release
Video #0
ID : 0
Format : MPEG-4 Visual
Format profile : [email protected]
Format settings, BVOP : Yes
Format settings, QPel : No
Format settings, GMC : No warppoints
Format settings, Matrix : Default (MPEG)
Muxing mode : Packed bitstream
Codec ID : XVID
Codec ID/Hint : XviD
Duration : 1h 28mn
Bit rate : 2 068 Kbps
Width : 720 pixels
Height : 400 pixels
Display aspect ratio : 16:9
Frame rate : 25.000 fps
Resolution : 24 bits
Colorimetry : 4:2:0
Scan type : Interlaced
Scan order : Bottom Field First
Bits/(Pixel*Frame) : 0.287
Stream size : 1.28 GiB (94%)
Writing library : XviD 1.2.1 (UTC 2008-12-04)
Audio #1
ID : 1
Format : MPEG Audio
Format version : Version 1
Format profile : Layer 3
Codec ID : 55
Codec ID/Hint : MP3
Duration : 1h 28mn
Bit rate mode : Constant
Bit rate : 128 Kbps
Channel(s) : 2 channels
Sampling rate : 48.0 KHz
Resolution : 16 bits
Video delay : 8ms
Stream size : 81.3 MiB (6%)
Alignment : Split accross interleaves
Interleave, duration : 40 ms (1.00 video frame)
Interleave, preload duration : 500 ms
сценарий Ридиан Брук
продюсер Изабелль Хелле, Женев Хофмайер, Майкл Дж. Мосли,
оператор Питер Гринхалг
композитор Ти Унвин
художник Джонатан Ли, William Boyes, Мойра Энн Мейер,
монтаж Ник Эмерсон
Download / Скачать

Хотите скачать бесплатно? Зарегистрируйтесь на сайте (ссылка на регистрацию). Pirat.ca - самый быстрый торрент трекер в рунете!

Как скачивать  ·   Что такое торрент  ·   Рейтинг и ограничения



Последний раз редактировалось: Sirota (2012-01-12 20:05), всего редактировалось 4 раз(а)

CHARLI2236

1096

Пост 30-Окт-2012 12:44 (спустя 9 месяцев 17 дней)

[Q] 

благодарю

_________________
[Профиль]  [ЛС] 

Григор_из гор

Лоцман

Пост 25-Май-2013 16:17 (спустя 6 месяцев 26 дней)

[Q] 

Добрый день. Я уже 2 недели, как не могу скачать этот фильм. Вы могли бы раздавать её? Мне осталось еще 25% скачать.
[Профиль]  [ЛС] 
Показать сообщения:    
Ответить на тему

Текущее время: Сегодня 22:04

Часовой пояс: GMT + 4



Вы не можете начинать темы
Вы не можете отвечать на сообщения
Вы не можете редактировать свои сообщения
Вы не можете удалять свои сообщения
Вы не можете голосовать в опросах
Вы не можете прикреплять файлы к сообщениям
Вы не можете скачивать файлы

▼ Вниз