ML
     
  Уважаемый Гость!
Вы можете поддержать проект и зарегистрироваться у наших партнеров - онлайн-стратегия MyLands. При регистрации в игре Вы получите код, который сможете активировать после регистрации на pirat.ca и получить 1000 дублонов.

Ваш код:
c3360d664ceb84802c84b88ed062a5d134e2ba97
 
     

Запретные темы истории. Загадки древнего Египта / Серии: 1-6 из 6 (Константин Шишкин, Андрей Скляров) [2005 г., документальный, DVDRip] [Original (Rus)]

Ответить на тему
 
Автор
Сообщение

Пост 23-Май-2014 17:17

[Q] 

AAWolf

-Запретные темы истории. Загадки древнего Египта- Год выпуска: 2005 г.
Производство: Россия , Фонд развития науки "III Тысячелетие"
Жанр: документальный
Продолжительность: 6x ~ 00:26:00
Перевод: Не требуется
Оригинальный аудиопоток: русский
Режиссёр: Константин Шишкин, Андрей Скляров-В ролях: Андрей Скляров, Константин Шишкин, Вячеслав Красаков, Дмитрий Огай-Описание: Фильм «Загадки Древнего Египта» создан на базе уникального материала, снятого в ходе нескольких экспедиций, и основан на фактах и гипотезах, которые умышленно замалчиваются академической наукой, поскольку грозят обрушить привычную картину далекого прошлого человечества. Целый ряд объектов закрыт для широкого доступа, а съемки их запрещены. Поэтому многое зрители увидят впервые.
Создатели фильма решили полагаться не на ту или иную теорию, а только на реальные факты, логику и здравый смысл. Такой подход неумолимо приводит к выводу, что на земле Египта за тысячи лет до первых фараонов существовала очень высоко развитая цивилизация, которая превосходила по своим знаниям и технологиям не только примитивное общество древних египтян, но и современное человечество. Представителей этой цивилизации сами древние египтяне называли богами.
-Качество видео: DVDRip
Контейнер: AVI
Видео кодек: XviD
Аудио кодек: MP3
Видео: 720x544, ~ 1918 kbps avg, 25 fps, 0.195 bit/pixel
Аудио: 224 kbps, 2 ch, 48.0 kHz
Cубтитры: отсутствуют

Общее
Полное имя : Загадки древнего Египта.2005.[DVDRip]\Egypit.1.Тайны семи пирамид.avi
Формат : AVI
Формат/Информация : Audio Video Interleave
Размер файла : 400 Мбайт
Продолжительность : 26 м.
Общий поток : 2145 Кбит/сек
Программа кодирования : VirtualDubMod 1.5.10.3 | (build 2550/release)
Библиотека кодирования : VirtualDubMod build 2550/release
Видео
Идентификатор : 0
Формат : MPEG-4 Visual
Профиль формата : [email protected]
Параметр BVOP формата : Нет
Параметр QPel формата : Нет
Параметр GMC формата : Без точки перехода
Параметр матрицы формата : Default (H.263)
Идентификатор кодека : XVID
Идентификатор кодека/Подсказка : XviD
Продолжительность : 26 м.
Битрейт : 1911 Кбит/сек
Ширина : 720 пикселей
Высота : 544 пикселя
Соотношение сторон : 4:3
Частота кадров : 25,000 кадров/сек
Цветовое пространство : YUV
Субдискретизация насыщенности : 4:2:0
Битовая глубина : 8 бит
Тип развёртки : Прогрессивная
Метод сжатия : С потерями
Бит/(Пиксели*Кадры) : 0.195
Размер потока : 357 Мбайт (89%)
Библиотека кодирования : Lavc53.7.0
Аудио
Идентификатор : 1
Формат : MPEG Audio
Версия формата : Version 1
Профиль формата : Layer 2
Идентификатор кодека : 50
Продолжительность : 26 м.
Вид битрейта : Постоянный
Битрейт : 224 Кбит/сек
Каналы : 2 канала
Частота : 48,0 КГц
Метод сжатия : С потерями
Размер потока : 41,8 Мбайт (10%)
Выравнивание : Соединение по промежуткам
Продолжительность промежутка : 40 мс. (1,00 видеокадр)
Время предзагрузки промежутка : 504 мс.
1 серия: Тайна семи пирамид. В Египте более ста пирамид, семь из которых кардинально отличаются от всех остальных по методам и технологии строительства. Они настолько выпадают из общей картины примитивного общества Древнего Египта, что позволяют выдвинуть версию их создания задолго до первых фараонов теми, кого сами египтяне называли богами, - цивилизацией, которая достигла очень высокого уровня развития.
2 серия: Вечный ремонт. Многочисленные факты указывают на то, что египтяне зачастую не строили заново пирамиды и храмы, а лишь использовали для этого остатки гораздо более древних сооружений. Фараоны только проводили их реконструкцию и ремонт, следы которого можно найти практически по всему Египту. Причём строительные технологии времён фараонов так и не смогли подняться до уровня их великих предшественников.
3 серия: Технологии богов. В Египте сохранилось очень много артефактов, которые указывают на реальность существования здесь за тысячи лет до первых фараонов совершенно другой цивилизации. На этих артефактах остались следы таких инструментов и методов обработки, которые во многом превосходили возможности не только примитивного общества времён фараонов, но и современной цивилизации. Даже самых передовых наших технологий порой недостаточно для того, чтобы оставить подобные следы.
4 серия: Поиск знаний богов. Фараоны знали о существовании задолго до них очень высоко развитой цивилизации богов и стремились овладеть её знаниями. Они проводили археологические работы, создавали коллекции и даже целые музеи. Часть таких собраний дошла и до наших дней. Многие предметы из этих коллекций мы не можем повторить даже с помощью самых современных технологий. Однако, как во времена фараонов, так и ныне, знание богов тщательно скрывается от широкой аудитории.
5 серия: Логика наоборот. Анализ реальных фактов позволяет восстановить некоторые приемы и методы, которые использовала древняя цивилизация египетских богов. И, как выясняется, они весьма сильно отличаются от привычных нам по самой своей логике и использованным подходам. Но даже это не даёт однозначного ответа на вопрос о происхождении этой цивилизации. Были это инопланетяне или жители легендарной Атлантиды – так и остается загадкой.
6 серия: Великий трансформатор. Пытаясь понять цель строительства Великой пирамиды, мы оказываемся в роли неандертальца перед гудящим трансформатором. Новейшие исследования показывают, что пирамида имела техническое назначение и использовала энергию планеты. Целый ряд странных свойств пирамид и детали их внутренней конструкции оказываются далеко не случайными и имеют связь с неизвестной технологией работы этих гигантских "установок".
[/pre]
Download / Скачать

Хотите скачать бесплатно? Зарегистрируйтесь на сайте (ссылка на регистрацию). Pirat.ca - самый быстрый торрент трекер в рунете!

Как скачивать  ·   Что такое торрент  ·   Рейтинг и ограничения

AnastasWolf

3476

Пост 25-Май-2014 21:21 (спустя 2 дня 4 часа)

[Q] 

Такого уже не снимут - пирамиды закрыли для туристов. Наверно, опять какое-нибудь интересное доказательство о существовании высокоразвитой цивилизации нашли...

_________________


Последний раз редактировалось: AnastasWolf (2014-08-24 23:12), всего редактировалось 1 раз
[Профиль]  [ЛС] 

Pit

Пост 18-Июн-2014 17:10 (спустя 23 дня)

[Q] 

интересно Спасибо!!!
[Профиль]  [ЛС] 

odyssey123

Флибустьер

Пост 21-Янв-2015 17:35 (спустя 7 месяцев 3 дня)

[Q] 

Автору респект!!!
Посмотрим что это такое...
[Профиль]  [ЛС] 
Показать сообщения:    
Ответить на тему

Текущее время: Сегодня 10:09

Часовой пояс: GMT + 4



Вы не можете начинать темы
Вы не можете отвечать на сообщения
Вы не можете редактировать свои сообщения
Вы не можете удалять свои сообщения
Вы не можете голосовать в опросах
Вы не можете прикреплять файлы к сообщениям
Вы не можете скачивать файлы

▼ Вниз