ML
     
  Уважаемый Гость!
Вы можете поддержать проект и зарегистрироваться у наших партнеров - онлайн-стратегия MyLands. При регистрации в игре Вы получите код, который сможете активировать после регистрации на pirat.ca и получить 1000 дублонов.

Ваш код:
c3360d664ceb84802c84b88ed062a5d134e2ba97
 
     

Конец эпохи доллара (Первый канал) [2011 г., документальный, SATRip]

Ответить на тему
 
Автор
Сообщение

Пост 12-Янв-2012 18:39

[Q] 

me14

Конец эпохи доллара
Год выпуска: 2011
Производство: Россия
Жанр: документальный
Продолжительность серии: 00:51:17
Перевод: Не требуется
Субтитры: отсутствуют
Режиссер: Первый канал
Описание: Америка должна больше 2000 долларов каждому жителю планеты Земля. Может ли произойти дефолт Америки и крах доллара? Долгое время такой сценарий считался фантастикой. Но неожиданно самые мрачные прогнозы стали сбываться. Кредитный рейтинг США снижен. Дошла очередь и до главного "невозможного" сценария – разрушения системы расчетов в долларах из-за обесценивания валюты США. Весь ХХ век доллар совершал стремительную экспансию, завоевывая все новые и новые рынки. К концу прошлого столетия больше не осталось территорий, которые не были бы освоены долларом. Огромные массы долларов больше некуда экспортировать. Но США продолжают печатать свою валюту, занимать и тратить. Внешний долг растет с 14 до 16 триллионов – цифры невероятные! Что же будет с долларом, евро, с бумажными деньгами вообще, в условиях, когда они стремительно обесцениваются. Что ждет Россию, резервы которой в основном в долларах и евро? Какая платежная система может стать заменой сегодняшней? Пачки сигарет? Бутылки водки? Золото? Можно ли спасти свои деньги, когда долговой кризис касается всех – стран зоны евро, США, Японии?..-
Источник/Качество: SATRip
Формат: AVI
Видео кодек: DivX
Аудио кодек: MP3
Видео: 704x400 , 25 fps, DivX , 1550 kbps avg
Аудио: 48 kHz, MPEG Layer 3, 2 ch, 128.00 kbps avg
Формат : AVI
Формат/Информация : Audio Video Interleave
Размер файла : 619 MiB
Продолжительность : 51mn 17s
Общий поток : 1 688 Kbps
Библиотека кодирования : VirtualDub build 30009/release
Video
Идентификатор : 0
Формат : MPEG-4 Visual
Параметр BVOP формата : 1
Параметр QPel формата : No
Параметр GMC формата : No warppoints
Параметр матрицы формата : Default (H.263)
Режим смешивания : Packed bitstream
Идентификатор кодека : DX50
Идентификатор кодека/Подсказка : DivX 5
Продолжительность : 51mn 17s
Битрейт : 1 551 Kbps
Ширина : 704 pixels
Высота : 400 pixels
Соотношение сторон : 16:9
Частота кадров : 25.000 fps
Цветовое пространство : YUV
Подвыборка цветности : 4:2:0
Битовая глубина : 8 bits
Тип развёртки : Progressive
Метод сжатия : Lossy
Бит/(Пиксели*Кадры) : 0.220
Размер потока : 569 MiB (92%)
Библиотека кодирования : DivX 6.8.5 (UTC 2009-08-20)
Audio
Идентификатор : 1
Формат : MPEG Audio
Версия формата : Version 1
Профиль формата : Layer 3
Режим : Joint stereo
Расширение режима : MS Stereo
Идентификатор кодека : 55
Идентификатор кодека/Подсказка : MP3
Продолжительность : 51mn 16s
Вид битрейта : Constant
Битрейт : 128 Kbps
Канал(ы) : 2 channels
Частота : 48.0 KHz
Метод сжатия : Lossy
Размер потока : 46.9 MiB (8%)
Выравнивание : Split accross interleaves
Продолжительность промежутка : 40 ms (1.00 video frame)
Время предзагрузки промежутка : 500 ms
-
Download / Скачать

Хотите скачать бесплатно? Зарегистрируйтесь на сайте (ссылка на регистрацию). Pirat.ca - самый быстрый торрент трекер в рунете!

Как скачивать  ·   Что такое торрент  ·   Рейтинг и ограничения

bruder

Флибустьер

Пост 12-Янв-2012 23:56 (спустя 5 часов)

[Q] 

Спасибо, интересный фильм.

_________________
[Профиль]  [ЛС] 

alexeyks100

Шкипер

Пост 13-Янв-2012 05:40 (спустя 5 часов)

[Q] 

Доллары, доллары! Продаю деревянные баксы, покупаю надежные рубли!!!! ))))
А если серьезно - мне кажется, все намного сложнее, чем 1 канал думает. У них наука, у них технологии. У них много чего есть, чего нет у других. И такой сложный клубок противоречий бог весть чем закончится..
[Профиль]  [ЛС] 

Амангельды

35501

Пост 13-Янв-2012 07:08 (спустя 1 час 28 минут)

[Q] 

alexeyks100, никакой науки и технологии, простое и банальное кидалово...
Когда печатный станок находится в руках не государства, а кучки иудеев - отгадай о чем они будут думать, о государстве или о шкурных интересах?

_________________

Товарищ, верь, пройдет она,
Так называемая гласность.
И вот тогда госбезопасность
Припомнит ваши имена
Раздачи от Амангельды - ТЫНЦ
[Профиль]  [ЛС] 

Maxim54rus

Корсар

40

Пост 13-Янв-2012 10:43 (спустя 3 часа)

[Q] 

Амангельды, Боюсь там все гораздо хуже! Кучка иудеев уже и есть теневое государство! И интересы у них давно общие, вряд ли они допустят чтобы лавочка прикрылась(а их посадили на кол) они уже начали мутации в своей экономики по восстановлению своего производства и возвращению его из Китая. А также началась экономия расходов на армию и добыча сланцевых углеводородов чья себестоимость добычи будет меньше от года в год, а запасы практически не ограничены! Так что скорее всего Американская экономика станет более закрытой, а углеводороды потеряют нынешнюю стоимость ценою в человеческие жизни
а $ будет жить и дальше, ведь так приятно менять бумагу на ресурсы и материальные ценности!
[Профиль]  [ЛС] 

bruder

Флибустьер

Пост 16-Янв-2012 20:35 (спустя 3 дня)

[Q] 

Думаю, что от краха доллара никому не поздоровится. Чёрт с ней, с этой Америкой, но в мире начнётся такой хаос, что сегодняшний кризис покажется детской игрой в "Монополию"...Лично я был бы рад. если бы Мирового Жандарма постигла участь СССР, но доллар должен остаться, хотя бы, виртуальной валютой ( наподобие инвалютного рубля или ЭКЮ).

_________________
[Профиль]  [ЛС] 

was1ya

Морской Волк

Пост 17-Янв-2012 14:44 (спустя 18 часов)

[Q] 

Интересное хоть кино?

_________________
[Профиль]  [ЛС] 

bruder

Флибустьер

Пост 17-Янв-2012 21:42 (спустя 6 часов)

[Q] 

Интересное хоть кино?
Да!

_________________
[Профиль]  [ЛС] 

Pastor

Корсар

71

Пост 23-Янв-2012 21:09 (спустя 5 дней)

[Q] 

Интересное хоть кино?
Да!
Качаю! :D
[Профиль]  [ЛС] 

me14 ®

999

Пост 06-Фев-2012 14:55 (спустя 13 дней)

[Q] 

Проблема в том, что крах действительно будет, потому как система не работает в этой реальности без потерь.
Другое дело, каким будет этот крах и когда. Если обрушить сейчас - европа и западный окажется в большуууущей жопе, потому как их демократия как раз и зиждется на таком типе экономики.
Они войдут в такой глубокий кризис, что последствия могут быть самыми печальными вплоть до передела мира.
Поэтому суть сейчас одна - надо придумать безбаговую систему, которая бы смогла работать на основе текущей. Чем они сейчас и занимаются.
P.S. Когда я говорю западный мир, это озачает что Россия отхватит не меньших п.....й в таком раскладе.

_________________
Если вы все еще не забанены - это не ваша заслуга, а модераторская недоработка.
[Профиль]  [ЛС] 

was1ya

Морской Волк

Пост 12-Фев-2012 13:12 (спустя 5 дней)

[Q] 

оч познавательно

_________________
[Профиль]  [ЛС] 

Амангельды

35501

Пост 12-Фев-2012 13:15 (спустя 2 минуты)

[Q] 

надо придумать безбаговую систему
Или затеять войнушку, чем ребятки плотно так и занимаются 10 лет...
Поджигают там, сям...

_________________

Товарищ, верь, пройдет она,
Так называемая гласность.
И вот тогда госбезопасность
Припомнит ваши имена
Раздачи от Амангельды - ТЫНЦ
[Профиль]  [ЛС] 
Показать сообщения:    
Ответить на тему

Текущее время: Сегодня 10:05

Часовой пояс: GMT + 4



Вы не можете начинать темы
Вы не можете отвечать на сообщения
Вы не можете редактировать свои сообщения
Вы не можете удалять свои сообщения
Вы не можете голосовать в опросах
Вы не можете прикреплять файлы к сообщениям
Вы не можете скачивать файлы

▼ Вниз