ML
     
  Уважаемый Гость!
Вы можете поддержать проект и зарегистрироваться у наших партнеров - онлайн-стратегия MyLands. При регистрации в игре Вы получите код, который сможете активировать после регистрации на pirat.ca и получить 1000 дублонов.

Ваш код:
822959f93c00d34653763d5bbf9ee9a7134af98a
 
     

Запретные темы истории. Перу и Боливия задолго до инков / Серии: 1-6 из 6 (Андрей Скляров) [2008 г., документальный, DVDRip] [Original (Rus)]

Ответить на тему
 
Автор
Сообщение

Пост 24-Май-2014 22:22

[Q] 

AnastasWolf

-Запретные темы истории. Перу и Боливия задолго до инков- Год выпуска: 2008 г.
Производство: Россия , Фонд развития науки "III тысячелетие"
Жанр: документальный
Продолжительность: 6x ~ 00:40:04
Дата выхода DVD: 15 октября 2008, «DVD Land»
Перевод: Не требуется
Оригинальный аудиопоток: русский
Режиссер: Андрей Скляров-В ролях: Андрей Скляров, Андрей Жуков, Алексей Тесленко, Александр Дымников-Описание: Фильм "Перу и Боливия задолго до инков" создан на базе материала, собранного в ходе экспедиции осенью 2007 года. Южноамериканский континент сохранил следы не только величественного, но и весьма драматичного прошлого. В том числе и в судьбе высокоразвитой цивилизации.
В фильм вошло немало уникальных кадров, которые ранее нигде не показывались, и у зрителей есть возможность увидеть многое впервые, также как и ознакомиться с новыми версиями и гипотезами.
-Качество видео: DVDRip
Контейнер: AVI
Видео кодек: XviD
Аудио кодек: AC3
Видео: 704x416, 2445; 2245; 1694; 2663; 2171; 2665 kbps, 25 fps, 0.334 bit/pixel
Аудио: 192 kbps, 2 ch, 48.0 kHz
Cубтитры: отсутствуют

Общее
Полное имя : Запретные темы истории. Перу и Боливия задолго до инков.2008.[DVDRip]\1..avi
Формат : AVI
Формат/Информация : Audio Video Interleave
Размер файла : 700 Мбайт
Продолжительность : 37 м.
Общий поток : 2644 Кбит/сек
Программа кодирования : VirtualDubMod 1.5.4.1 (build 2178/release)
Библиотека кодирования : VirtualDubMod build 2178/release
Видео
Идентификатор : 0
Формат : MPEG-4 Visual
Профиль формата : Advanced [email protected]
Параметр BVOP формата : Нет
Параметр QPel формата : Нет
Параметр GMC формата : Без точки перехода
Параметр матрицы формата : Выборочная
Идентификатор кодека : XVID
Идентификатор кодека/Подсказка : XviD
Продолжительность : 37 м.
Битрейт : 2445 Кбит/сек
Ширина : 704 пикселя
Высота : 416 пикселей
Соотношение сторон : 1,692
Частота кадров : 25,000 кадров/сек
Цветовое пространство : YUV
Субдискретизация насыщенности : 4:2:0
Битовая глубина : 8 бит
Тип развёртки : Прогрессивная
Метод сжатия : С потерями
Бит/(Пиксели*Кадры) : 0.334
Размер потока : 647 Мбайт (92%)
Библиотека кодирования : XviD 1.2.0.dev47 (UTC 2006-11-01)
Аудио
Идентификатор : 1
Формат : AC-3
Формат/Информация : Audio Coding 3
Расширение режима : CM (complete main)
Параметр Endianness формата : Big
Идентификатор кодека : 2000
Продолжительность : 37 м.
Вид битрейта : Постоянный
Битрейт : 192 Кбит/сек
Каналы : 2 канала
Расположение каналов : Front: L R
Частота : 48,0 КГц
Битовая глубина : 16 бит
Метод сжатия : С потерями
Размер потока : 50,8 Мбайт (7%)
Выравнивание : Разделение по промежуткам
Продолжительность промежутка : 96 мс. (2,40 видеокадра)
Время предзагрузки промежутка : 96 мс.
Часть 1. Наска - за гранью логики.
Часть 2. Свидетель не только Потопа.
Часть 3. Технологии 10 тысяч лет назад.
Часть 4. Предназначение божественных творений.
Часть 5. Проигравшие войну.
Часть 6. Тайна камней Ики.
Download / Скачать

Хотите скачать бесплатно? Зарегистрируйтесь на сайте (ссылка на регистрацию). Pirat.ca - самый быстрый торрент трекер в рунете!

Как скачивать  ·   Что такое торрент  ·   Рейтинг и ограничения

Pit

Пост 20-Июн-2014 14:58 (спустя 26 дней)

[Q] 

интересно Вы лучшие!
[Профиль]  [ЛС] 

AnastasWolf ®

3476

Пост 23-Авг-2014 00:01 (спустя 2 месяца 2 дня)

[Q] 

Мне это тоже интересно, потому и раздаю.

_________________
[Профиль]  [ЛС] 

ДимаЯн

Лоцман

Пост 23-Авг-2014 11:08 (спустя 11 часов)

[Q] 

Не идёт раздача.Ждёмс!
[Профиль]  [ЛС] 

AnastasWolf ®

3476

Пост 23-Авг-2014 16:06 (спустя 4 часа)

[Q] 

ДимаЯн, если нет сида на раздаче или не качает - всегда нажимай кнопку "позвать скачавших".

_________________
[Профиль]  [ЛС] 

ДимаЯн

Лоцман

Пост 23-Авг-2014 16:54 (спустя 48 минут)

[Q] 

Дико извиняюсь! А где эта кнопка?
Добавлено спустя 2 минуты 43 секунды:
Нашёл, спасибо.
[Профиль]  [ЛС] 
Показать сообщения:    
Ответить на тему

Текущее время: Сегодня 05:55

Часовой пояс: GMT + 4



Вы не можете начинать темы
Вы не можете отвечать на сообщения
Вы не можете редактировать свои сообщения
Вы не можете удалять свои сообщения
Вы не можете голосовать в опросах
Вы не можете прикреплять файлы к сообщениям
Вы не можете скачивать файлы

▼ Вниз