ML
     
  Уважаемый Гость!
Вы можете поддержать проект и зарегистрироваться у наших партнеров - онлайн-стратегия MyLands. При регистрации в игре Вы получите код, который сможете активировать после регистрации на pirat.ca и получить 1000 дублонов.

Ваш код:
c3360d664ceb84802c84b88ed062a5d134e2ba97
 
     

Война и мифы / Серии: 1-5 из 5 (Элла Тухарели) [2014 г., документальный]

Ответить на тему
 
Автор
Сообщение

Пост 25-Май-2014 17:45

[Q] 

okorm

-Война и мифы-- Производство: Россия
Жанр: документальный
Год выпуска: 2014 г.
Продолжительность: 5 х 00:48:11
Перевод: Не требуется
Оригинальный аудиопоток: русский
Режиссер: Элла Тухарели-Описание: "Война и мифы" - многосерийный документальный телевизионный фильм, разоблачающий современные мифы о Великой Отечественной войне.
По книге В.Р. Мединского "Война. Мифы СССР 1939-1945"
1 серия "План Ост"
Серия подробно рассказывает про фашистский "План Ост", согласно которому планировалось полное уничтожение славянского населения на территориях Восточной Европы и СССР, опровергая современный миф о том, что если бы СССР без боя сдался фашистам, то гражданское население получило бы невероятные плюсы, а уровень жизни в стране улучшился во много раз.
2 серия "Первые дни войны"
Серия подробно рассказывает о действиях советского военноначалия летом 1941 года, опровергая миф о том, что СССР был абсолютно не готов к Войне, а И. В. Сталин находился "в прострации", оставив страну без лидера.
3 серия "Ополченцы и коллаборационисты"
Серия подробно рассказывает о гражданских людях, которые добровольно отказались от брони и пошли на фронт ополченцами, опровергая современный миф о том, что народное ополчение из граждан Советского Союза формировалось под угрозой репрессий силой. Также в серии рассказывается о коллаборационистах – гражданах Советского Союза, помогавших фашистской Германии на оккупированных территориях.
4 серия "Штрафбат"
Серия подробно рассказывает о реальном количестве штрафных батальонов в Советской армии, опровергая миф о том, что на всех фронтах воевали сотни батальонов штрафников под жестким прикрытием заградотрядов.
5 серия. "Ленд-лиз. Вклад союзников"
США и Великобритания помогали Красной Армии. Своими победами мы обязаны союзникам. Вот самый главный миф. А теперь правда о ленд-лизе.
Мифологизация ленд-лиза вредна и даже опасна. В своем радикальном виде это выглядит примерно так. Американцы с англичанами не только храбро воевали сами, но еще и содержали Красную Армию. Фактически всеми своими победами она обязана союзникам.
-Качество видео: HDTVRip, SATRip
Контейнер: AVI
Видео кодек: Другой MPEG4
Аудио кодек: AC3
Видео: MPEG-4 Visual at 1466 Кбит/сек, Aspect : 720 x 400 (1.800) at 25.000 fps / MPEG-4 Visual at 1504 Кбит/сек, Aspect : 720 x 400 (1.800) at 25.000 fps
Аудио: AC-3 at 384 Кбит/сек, Infos : 6 каналов, 48,0 КГц / AC-3 at 192 Кбит/сек Infos : 2 канала, 48,0 КГц
Cубтитры: отсутствуют
Общее
Полное имя : E:\kodirovany\Война и мифы.2014.RG Русские сериалы\Фильм 1 - План Ост.avi
Формат : AVI
Формат/Информация : Audio Video Interleave
Размер файла : 641 Мбайт
Продолжительность : 48 м.
Общий поток : 1860 Кбит/сек
Программа кодирования : VirtualDubMod 1.5.10.3 | www.virtualdub-fr.org || (build 2550/release)
Библиотека кодирования : VirtualDubMod build 2550/release
Видео
Идентификатор : 0
Формат : MPEG-4 Visual
Профиль формата : Advanced [email protected]
Параметр BVOP формата : 1
Параметр QPel формата : Нет
Параметр GMC формата : Без точки перехода
Параметр матрицы формата : Выборочная
Идентификатор кодека : XVID
Идентификатор кодека/Подсказка : XviD
Продолжительность : 48 м.
Битрейт : 1466 Кбит/сек
Ширина : 720 пикселей
Высота : 400 пикселей
Соотношение сторон : 16:9
Частота кадров : 25,000 кадров/сек
Цветовое пространство : YUV
Субдискретизация насыщенности : 4:2:0
Битовая глубина : 8 бит
Тип развёртки : Прогрессивная
Метод сжатия : С потерями
Бит/(Пиксели*Кадры) : 0.204
Размер потока : 505 Мбайт (79%)
Библиотека кодирования : XviD 73
Аудио
Идентификатор : 1
Формат : AC-3
Формат/Информация : Audio Coding 3
Расширение режима : CM (complete main)
Параметр Endianness формата : Big
Идентификатор кодека : 2000
Продолжительность : 48 м.
Вид битрейта : Постоянный
Битрейт : 384 Кбит/сек
Каналы : 6 каналов
Расположение каналов : Front: L C R, Side: L R, LFE
Частота : 48,0 КГц
Битовая глубина : 16 бит
Метод сжатия : С потерями
Размер потока : 132 Мбайт (21%)
Выравнивание : Разделение по промежуткам
Продолжительность промежутка : 40 мс. (1,00 видеокадр)
Время предзагрузки промежутка : 500 мс.
============================================================================================
Общее
Полное имя : E:\kodirovany\Война и мифы.2014.RG Русские сериалы\Фильм 5 - Ленд-Лиз.avi
Формат : AVI
Формат/Информация : Audio Video Interleave
Размер файла : 601 Мбайт
Продолжительность : 49 м.
Общий поток : 1705 Кбит/сек
Программа кодирования : VirtualDubMod 1.5.10.3 | www.virtualdub-fr.org || (build 2550/release)
Библиотека кодирования : VirtualDubMod build 2550/release
Видео
Идентификатор : 0
Формат : MPEG-4 Visual
Профиль формата : Advanced [email protected]
Параметр BVOP формата : 1
Параметр QPel формата : Нет
Параметр GMC формата : Без точки перехода
Параметр матрицы формата : Выборочная
Идентификатор кодека : XVID
Идентификатор кодека/Подсказка : XviD
Продолжительность : 49 м.
Битрейт : 1504 Кбит/сек
Ширина : 720 пикселей
Высота : 400 пикселей
Соотношение сторон : 16:9
Частота кадров : 25,000 кадров/сек
Цветовое пространство : YUV
Субдискретизация насыщенности : 4:2:0
Битовая глубина : 8 бит
Тип развёртки : Прогрессивная
Метод сжатия : С потерями
Бит/(Пиксели*Кадры) : 0.209
Размер потока : 530 Мбайт (88%)
Библиотека кодирования : XviD 73
Аудио
Идентификатор : 1
Формат : AC-3
Формат/Информация : Audio Coding 3
Расширение режима : CM (complete main)
Параметр Endianness формата : Big
Идентификатор кодека : 2000
Продолжительность : 49 м.
Вид битрейта : Постоянный
Битрейт : 192 Кбит/сек
Каналы : 2 канала
Расположение каналов : Front: L R
Частота : 48,0 КГц
Битовая глубина : 16 бит
Метод сжатия : С потерями
Размер потока : 67,7 Мбайт (11%)
Выравнивание : Разделение по промежуткам
Продолжительность промежутка : 40 мс. (1,00 видеокадр)
Время предзагрузки промежутка : 500 мс.
Download / Скачать

Хотите скачать бесплатно? Зарегистрируйтесь на сайте (ссылка на регистрацию). Pirat.ca - самый быстрый торрент трекер в рунете!

Как скачивать  ·   Что такое торрент  ·   Рейтинг и ограничения



Последний раз редактировалось: okorm (2014-05-27 12:48), всего редактировалось 6 раз(а)

AndrayDrang

Шкипер

Пост 25-Май-2014 18:01 (спустя 15 минут)

[Q] 

Всё ясно понятно...думают что прокатит. Ой как стыдно-то...
[Профиль]  [ЛС] 

PITON5328

Морской Волк

Пост 22-Июн-2014 17:34 (спустя 27 дней)

[Q] 

539112Всё ясно понятно...думают что прокатит. Ой как стыдно-то...
Не понятно что ты хочешь сказать
А понял следы майдонутых bu

_________________
[Профиль]  [ЛС] 
Показать сообщения:    
Ответить на тему

Текущее время: Сегодня 10:07

Часовой пояс: GMT + 4



Вы не можете начинать темы
Вы не можете отвечать на сообщения
Вы не можете редактировать свои сообщения
Вы не можете удалять свои сообщения
Вы не можете голосовать в опросах
Вы не можете прикреплять файлы к сообщениям
Вы не можете скачивать файлы

▼ Вниз