ML
     
  Уважаемый Гость!
Вы можете поддержать проект и зарегистрироваться у наших партнеров - онлайн-стратегия MyLands. При регистрации в игре Вы получите код, который сможете активировать после регистрации на pirat.ca и получить 1000 дублонов.

Ваш код:
b70663c760e7cd2521b8e123786cdd788200e3bd
 
     

Чистая победа / Серии 1-2 из 2 (Валерий Тимощенко) [2013 г., документальный]

Ответить на тему
 
Автор
Сообщение

Пост 25-Май-2014 18:56

[Q] 

okorm

-Чистая победа-- Производство: Россия
Жанр: документальный
Год выпуска: 2013 - 2014 г.
Продолжительность: 2 х 00:40:00
Перевод: Не требуется
Оригинальный аудиопоток: русский
Режиссер: Валерий Тимощенко-Описание: Фильм 1: Об одной из самых блестящих операций времен Великой Отечественной войны - штурме Новороссийска советскими войсками в сентябре 1943 года. Это история о том, как наши командиры, большинству из которых тогда было немногим больше двадцати лет, благодаря дерзости, отваге, уму и военному таланту переиграли в смертельной схватке лучших немецких военных специалистов.
Фильм 2: Противник в 1942 году штурмовал Севастополь почти год, используя титанические орудия и нефтяные снаряды. В плен попали десятки тысяч наших бойцов и поэтому эта оборона часто подается историками как наше полное поражение, при этом они забывают: потери нацистов были гораздо большими. В 1944 же мы взяли севастопольский укрепрайон примерно за две недели... Собственно сам штурм города занял 4 дня. Операцией руководил лично маршал Василевский. Фильм соединяет хронику, воспоминания участников сражения и современные съемки в городе во время референдума о присоединении к России. Если говорить о чувствах людей, то чистая победа семидесятилетней давности с потрясающей точностью отражается в другой. И становится ясно, что эти люди ни тогда, ни сегодня проиграть не могли.
1.Штурм Новороссийска
Об одной из самых блестящих операций времен Великой Отечественной войны - штурме Новороссийска советскими войсками в сентябре 1943 года. Это история о том, как наши командиры, большинству из которых тогда было немногим больше двадцати лет, благодаря дерзости, отваге, уму и военному таланту переиграли в смертельной схватке лучших немецких военных специалистов.
2.Битва за Севастополь
Это фильм о взятии легендарной морской крепости 9 мая 1944 года. Противник в 1942 году штурмовал Севастополь почти год, используя титанические орудия и нефтяные снаряды. В плен попали десятки тысяч наших бойцов и поэтому эта оборона часто подается историками как наше полное поражение, при этом забывают, что потери нацистов были все равно больше. Враг считал Севастополь и мыс Херсонес глобальной стратегической точкой "Сердцем мира", и 17 армия вермахта по приказу Гитлера пыталась удержать крепость-порт любой ценой. В 1944 году советские войска, под руководством маршала Василевского, взяли севастопольскую линию обороны за две недели. Сам штурм города занял 4 дня. В этом пекле был и морской пехотинец Георгий Савенков, которому сейчас 88 лет, но он помнит до тончайших нюансов как он со своими товарищами освобождали Севастополь. Он пришел на войну, по его словам, "необстрелянным воробьем", а вышел Победителем, сохранив в своей памяти не только картины жестокости войны, но и острое восприятие красоты, неожиданно выпадавшее на долю солдата. Севастополь 44-го года во всех смыслах чистая победа. Фильм соединяет хронику и современные съемки в городе во время референдума о присоединении Крыма к России. Если говорить о чувствах людей, то чистая победа семидесятилетней давности с потрясающей точностью отражается в другой. И становится ясно, что эти люди ни тогда, ни сегодня проиграть не могли.
-Качество видео: IPTVRip
Контейнер: AVI
Видео кодек: XviD
Аудио кодек: MP3
Видео: XviD, 704x400, (1.76:1), ~ 1500 kbps avg, 25 fps, 0.21 bit/pixel
Аудио: 48 kHz, MPEG Layer 3, 2 ch, ~128.00 kbps avg
Cубтитры: отсутствуют
General
Complete name : C:\Users\Acer\Desktop\Чистая победа\1.Штурм Новороссийска.avi
Format : AVI
Format/Info : Audio Video Interleave
File size : 453 MiB
Duration : 39mn 4s
Overall bit rate : 1 621 Kbps
Video
ID : 0
Format : MPEG-4 Visual
Format profile : Advanced [email protected]
Format settings, BVOP : 2
Format settings, QPel : No
Format settings, GMC : No warppoints
Format settings, Matrix : Default (H.263)
Codec ID : XVID
Codec ID/Hint : XviD
Duration : 39mn 4s
Bit rate : 1 484 Kbps
Width : 704 pixels
Height : 400 pixels
Display aspect ratio : 16:9
Frame rate : 25.000 fps
Color space : YUV
Chroma subsampling : 4:2:0
Bit depth : 8 bits
Scan type : Progressive
Compression mode : Lossy
Bits/(Pixel*Frame) : 0.211
Stream size : 415 MiB (92%)
Writing library : XviD 1.2.1 (UTC 2008-12-04)
Audio
ID : 1
Format : MPEG Audio
Format version : Version 1
Format profile : Layer 3
Mode : Joint stereo
Mode extension : MS Stereo
Codec ID : 55
Codec ID/Hint : MP3
Duration : 39mn 4s
Bit rate mode : Constant
Bit rate : 128 Kbps
Channel(s) : 2 channels
Sampling rate : 48.0 KHz
Compression mode : Lossy
Stream size : 35.8 MiB (8%)
Alignment : Aligned on interleaves
Interleave, duration : 40 ms (1.00 video frame)
Interleave, preload duration : 504 ms
Writing library : LAMEЄ
Download / Скачать

Хотите скачать бесплатно? Зарегистрируйтесь на сайте (ссылка на регистрацию). Pirat.ca - самый быстрый торрент трекер в рунете!

Как скачивать  ·   Что такое торрент  ·   Рейтинг и ограничения



Последний раз редактировалось: okorm (2014-05-27 12:50), всего редактировалось 1 раз
Показать сообщения:    
Ответить на тему

Текущее время: Сегодня 00:22

Часовой пояс: GMT + 4



Вы не можете начинать темы
Вы не можете отвечать на сообщения
Вы не можете редактировать свои сообщения
Вы не можете удалять свои сообщения
Вы не можете голосовать в опросах
Вы не можете прикреплять файлы к сообщениям
Вы не можете скачивать файлы

▼ Вниз