ML
     
  Уважаемый Гость!
Вы можете поддержать проект и зарегистрироваться у наших партнеров - онлайн-стратегия MyLands. При регистрации в игре Вы получите код, который сможете активировать после регистрации на pirat.ca и получить 1000 дублонов.

Ваш код:
4fbd9898b6f10799a3e8edf60f31febd2bc15453
 
     

Моя Великая война / Серии 1-2 из 2 (Андрей Зайцев) [2013 г., документальный]

Ответить на тему
 
Автор
Сообщение

Пост 25-Май-2014 19:18

[Q] 

okorm

-Моя Великая война-- Производство: Россия
Жанр: документальный
Год выпуска: 2013 - 2014г.
Продолжительность: 2 х 00:39:00
Перевод: Не требуется
Оригинальный аудиопоток: русский
Режиссер: Андрей Зайцев-Описание: По статистике сегодня осталось около ста тысяч ветеранов Великой Отечественной войны. С каждым днем их, живых очевидцев, становится все меньше. Наши дети и внуки будут знать о той войне только по кинофильмам и историческим документам. Поэтому сегодня как никогда важно успеть зафиксировать живые свидетельства живых людей.
1.Дмитрий Ломоносов
Фильм построен на воспоминаниях Дмитрия Ломоносова, рядового связиста, кавалериста, бывшего военнопленного. Во время своего первого боя он ремонтировал оборвавшуюся связь, как позже выяснилось, прямо на минном поле. В 1944 году попал в плен: был тяжело ранен, контужен и подобран украинцем-власовцем. Дмитрий Борисович рассказывает об ужасах пребывания в плену, о том, как жестоко немцы относились именно к советским военнопленным. Вспоминает о "марше смерти", когда всех, кто находился в лагере, отправили пешком из Польши в Германию, и о том, что в начале пути их было две тысячи человек, а дошли лишь двести.
2.Иван Леонов
Иван Антонович Леонов - летчик-истребитель. В 1943 году его самолет был сбит, а самому Леонову вследствие ранения ампутировали левую руку. Однако летчик сумел убедить командование оставить его на службе и снова стал летать. Леонов придумал рычаг, который крепился к плечу и помогал управлять самолетом. Как Маресьев, который воевал без ног, Леонов продолжил воевать без руки. Разница лишь в том, что подвиг Маресьева широко известен, а о подвиге Леонова знают немногие.
-Качество видео: IPTVRip
Контейнер: AVI
Видео кодек: XviD
Аудио кодек: MP3
Видео: XviD, 704x528, (1.33:1), ~ 1600 kbps avg, 25 fps, 0.12 bit/pixel
Аудио: 48 kHz, MPEG Layer 3, 2 ch, ~128.00 kbps avg
Cубтитры: отсутствуют
General
Complete name : C:\Users\Acer\Desktop\Моя великая война\Иван Леонов.avi
Format : AVI
Format/Info : Audio Video Interleave
File size : 487 MiB
Duration : 39mn 11s
Overall bit rate : 1 738 Kbps
Writing application : VirtualDubMod 1.5.10.3 | www.virtualdub-fr.org || (build 2550/release)
Writing library : VirtualDubMod build 2550/release
Video
ID : 0
Format : MPEG-4 Visual
Format profile : Advanced [email protected]
Format settings, BVOP : 2
Format settings, QPel : No
Format settings, GMC : No warppoints
Format settings, Matrix : Default (MPEG)
Codec ID : XVID
Codec ID/Hint : XviD
Duration : 39mn 11s
Bit rate : 1 600 Kbps
Width : 704 pixels
Height : 528 pixels
Display aspect ratio : 4:3
Frame rate : 25.000 fps
Color space : YUV
Chroma subsampling : 4:2:0
Bit depth : 8 bits
Scan type : Progressive
Compression mode : Lossy
Bits/(Pixel*Frame) : 0.172
Stream size : 448 MiB (92%)
Writing library : XviD 1.2.1 (UTC 2008-12-04)
Audio
ID : 1
Format : MPEG Audio
Format version : Version 1
Format profile : Layer 3
Mode : Joint stereo
Mode extension : MS Stereo
Codec ID : 55
Codec ID/Hint : MP3
Duration : 39mn 11s
Bit rate mode : Constant
Bit rate : 128 Kbps
Channel(s) : 2 channels
Sampling rate : 48.0 KHz
Compression mode : Lossy
Stream size : 35.9 MiB (7%)
Alignment : Aligned on interleaves
Interleave, duration : 40 ms (1.00 video frame)
Interleave, preload duration : 504 ms
Writing library : LAME3.99r
Encoding settings : -m j -V 4 -q 0 -lowpass 17 -b 128
Download / Скачать

Хотите скачать бесплатно? Зарегистрируйтесь на сайте (ссылка на регистрацию). Pirat.ca - самый быстрый торрент трекер в рунете!

Как скачивать  ·   Что такое торрент  ·   Рейтинг и ограничения



Последний раз редактировалось: okorm (2014-05-27 12:51), всего редактировалось 1 раз

Voldemartop

Легенда

1547

Пост 25-Май-2014 20:32 (спустя 1 час 14 минут)

[Q] 

Благо Дарю okorm!!!
Автору респект!!! +

_________________


МОИ РАЗДАЧИ
[Профиль]  [ЛС] 
Показать сообщения:    
Ответить на тему

Текущее время: Сегодня 20:02

Часовой пояс: GMT + 4



Вы не можете начинать темы
Вы не можете отвечать на сообщения
Вы не можете редактировать свои сообщения
Вы не можете удалять свои сообщения
Вы не можете голосовать в опросах
Вы не можете прикреплять файлы к сообщениям
Вы не можете скачивать файлы

▼ Вниз