ML
     
  Уважаемый Гость!
Вы можете поддержать проект и зарегистрироваться у наших партнеров - онлайн-стратегия MyLands. При регистрации в игре Вы получите код, который сможете активировать после регистрации на pirat.ca и получить 1000 дублонов.

Ваш код:
0fcd44bd35319f69313aa6e53b31c51cbff1c942
 
     

Голоса / Серии: 1-2 из 2 (Екатерина Гордеева, Сергей Нурмамед) [2014 г., документальный]

Ответить на тему
 
Автор
Сообщение

Пост 25-Май-2014 19:41

[Q] 

okorm

-Голоса-- Производство: Россия
Жанр: документальный
Год выпуска: 2014 г.
Продолжительность: 2 х 01:00:00
Перевод: Не требуется
Оригинальный аудиопоток: русский
Режиссер: Екатерина Гордеева, Сергей Нурмамед-Описание: Фильм "Голоса" – достоверный и пронзительный рассказ о том, что пережили дети и подростки блокадного Ленинграда. 14 выживших героев и несколько десятков тех, за кого теперь могут говорить только строчки дневников и подписи к детским рисункам, слово за словом, минута за минутой, история за историей оживляют блокадную память. Что на самом деле чувствовали люди, в осажденном городе? Что из того, что мы знаем о блокаде – правда, а что – миф, штамп из учебника истории? Авторы фильма при помощи видеосравнений-реконструкций возвращают современный Санкт-Петербург в страшное время блокады, соединяя историю с сиюминутностью. Этот фильм - память и фильм о памяти. О том, как она устроена. О тех, благодаря кому, она может, должна быть сохранена.
1 серия
2 серия
-Качество видео: SATRip
Контейнер: AVI
Видео кодек: XviD
Аудио кодек: MP3
Видео: XviD, 720x400, (1.8:1), ~ 1500 kbps avg, 25 fps, 0.21 bit/pixel
Аудио: 48 kHz, MPEG Audio Layer 3, 2 ch, ~128.00 kbps avg
Cубтитры: отсутствуют
General
Complete name : K:\Голоса 2014\Golosa.01.SATRip.avi
Format : AVI
Format/Info : Audio Video Interleave
File size : 706 MiB
Duration : 1h 0mn
Overall bit rate : 1 632 Kbps
Video
ID : 0
Format : MPEG-4 Visual
Format profile : Advanced [email protected]
Format settings, BVOP : 2
Format settings, QPel : No
Format settings, GMC : No warppoints
Format settings, Matrix : Default (H.263)
Codec ID : XVID
Codec ID/Hint : XviD
Duration : 1h 0mn
Bit rate : 1 495 Kbps
Width : 720 pixels
Height : 400 pixels
Display aspect ratio : 16:9
Frame rate : 25.000 fps
Color space : YUV
Chroma subsampling : 4:2:0
Bit depth : 8 bits
Scan type : Progressive
Compression mode : Lossy
Bits/(Pixel*Frame) : 0.208
Stream size : 647 MiB (92%)
Writing library : XviD 73
Audio
ID : 1
Format : MPEG Audio
Format version : Version 1
Format profile : Layer 3
Mode : Joint stereo
Mode extension : MS Stereo
Codec ID : 55
Codec ID/Hint : MP3
Duration : 1h 0mn
Bit rate mode : Constant
Bit rate : 128 Kbps
Channel(s) : 2 channels
Sampling rate : 48.0 KHz
Compression mode : Lossy
Stream size : 55.4 MiB (8%)
Alignment : Split accross interleaves
Interleave, duration : 40 ms (1.00 video frame)
Interleave, preload duration : 500 ms
General
Complete name : K:\Голоса 2014\Golosa.02.SATRip.avi
Format : AVI
Format/Info : Audio Video Interleave
File size : 664 MiB
Duration : 56mn 41s
Overall bit rate : 1 638 Kbps
Writing application : VirtualDubMod 1.5.10.3 | www.virtualdub-fr.org || (build 2550/release)
Writing library : VirtualDubMod build 2550/release
Video
ID : 0
Format : MPEG-4 Visual
Format profile : Advanced [email protected]
Format settings, BVOP : 2
Format settings, QPel : No
Format settings, GMC : No warppoints
Format settings, Matrix : Default (H.263)
Codec ID : XVID
Codec ID/Hint : XviD
Duration : 56mn 41s
Bit rate : 1 500 Kbps
Width : 720 pixels
Height : 400 pixels
Display aspect ratio : 16:9
Frame rate : 25.000 fps
Color space : YUV
Chroma subsampling : 4:2:0
Bit depth : 8 bits
Scan type : Progressive
Compression mode : Lossy
Bits/(Pixel*Frame) : 0.208
Stream size : 608 MiB (92%)
Writing library : XviD 1.2.1 (UTC 2008-12-04)
Audio
ID : 1
Format : MPEG Audio
Format version : Version 1
Format profile : Layer 3
Mode : Joint stereo
Mode extension : MS Stereo
Codec ID : 55
Codec ID/Hint : MP3
Duration : 56mn 41s
Bit rate mode : Constant
Bit rate : 128 Kbps
Channel(s) : 2 channels
Sampling rate : 48.0 KHz
Compression mode : Lossy
Stream size : 51.9 MiB (8%)
Alignment : Aligned on interleaves
Interleave, duration : 40 ms (1.00 video frame)
Interleave, preload duration : 504 ms
Writing library : LAME3.98r
Encoding settings : -m j -V 4 -q 2 -lowpass 17 -b 128
Download / Скачать

Хотите скачать бесплатно? Зарегистрируйтесь на сайте (ссылка на регистрацию). Pirat.ca - самый быстрый торрент трекер в рунете!

Как скачивать  ·   Что такое торрент  ·   Рейтинг и ограничения



Последний раз редактировалось: okorm (2014-05-27 12:52), всего редактировалось 1 раз
Показать сообщения:    
Ответить на тему

Текущее время: Сегодня 02:13

Часовой пояс: GMT + 4



Вы не можете начинать темы
Вы не можете отвечать на сообщения
Вы не можете редактировать свои сообщения
Вы не можете удалять свои сообщения
Вы не можете голосовать в опросах
Вы не можете прикреплять файлы к сообщениям
Вы не можете скачивать файлы

▼ Вниз