ML
     
  Уважаемый Гость!
Вы можете поддержать проект и зарегистрироваться у наших партнеров - онлайн-стратегия MyLands. При регистрации в игре Вы получите код, который сможете активировать после регистрации на pirat.ca и получить 1000 дублонов.

Ваш код:
2932e5898d0a27592397f70b82a5834d1e70ea19
 
     

Унесенные морем / (Анастасия Попова) [2014 г., документальное]

Ответить на тему
 
Автор
Сообщение

Пост 25-Май-2014 20:06

[Q] 

okorm

-Унесенные морем-- Производство: Россия
Жанр: документальное
Год выпуска: 2014 г.
Продолжительность: 00:52:25
Перевод: Не требуется
Оригинальный аудиопоток: русский
Режиссер: Анастасия Попова-Описание: Фильм посвящен северным конвоям – самому быстрому и опасному маршруту ленд-лиза во время Второй мировой войны. Северный путь не случайно считался наиболее рискованной из дорог ленд-лиза, ведь путь кораблей с военной техникой лежал вокруг оккупированной Норвегии в северные порты. Совсем рядом находились базы немецкой авиации, а также подводного и надводного флота. По воспоминаниям американских моряков, которые сопровождали грузы, во время рейсов многие не снимали спасательных костюмов. А после возвращения каждый третий обращался к психиатру. За потенциально смертельную работу платили тройной оклад. Первые конвои, курсировавшие в 1941 году, проходили расстояние от Англии до Советского Союза без потерь. В 1942-м все изменилось. Осознав, какую угрозу представляют "посылки" от союзников СССР, гитлеровское командование решило помешать "опасной дружбе". В портах северной Норвегии было сосредоточено около 120 боевых кораблей, а на норвежских аэродромах появилось более 350 бомбардировщиков и торпедоносцев. Теперь ни один арктический конвой не проходил незамеченным и без потерь. В основу фильма положены дневники и письма участников северных конвоев.-Качество видео: HDTVRip
Контейнер: AVI
Видео кодек: XviD
Аудио кодек: AC3
Видео: XviD, 720x400, (1.8:1), 1533 kbps avg, 25 fps, 0.21 bit/pixel
Аудио: 48 kHz, Audio Coding 3, 2 ch, ~192.00 kbps avg
Cубтитры: отсутствуют
General
Complete name : K:\Унесенные морем.HDTVRip.avi
Format : AVI
Format/Info : Audio Video Interleave
File size : 650 MiB
Duration : 52mn 25s
Overall bit rate : 1 735 Kbps
Writing application : VirtualDubMod 1.5.10.3 | www.virtualdub-fr.org || (build 2550/release)
Writing library : VirtualDubMod build 2550/release
Video
ID : 0
Format : MPEG-4 Visual
Format profile : Advanced [email protected]
Format settings, BVOP : 1
Format settings, QPel : No
Format settings, GMC : No warppoints
Format settings, Matrix : Default (MPEG)
Codec ID : XVID
Codec ID/Hint : XviD
Duration : 52mn 25s
Bit rate : 1 533 Kbps
Width : 720 pixels
Height : 400 pixels
Display aspect ratio : 16:9
Frame rate : 25.000 fps
Color space : YUV
Chroma subsampling : 4:2:0
Bit depth : 8 bits
Scan type : Progressive
Compression mode : Lossy
Bits/(Pixel*Frame) : 0.213
Stream size : 575 MiB (88%)
Writing library : XviD 64
Audio
ID : 1
Format : AC-3
Format/Info : Audio Coding 3
Mode extension : CM (complete main)
Format settings, Endianness : Big
Codec ID : 2000
Duration : 52mn 25s
Bit rate mode : Constant
Bit rate : 192 Kbps
Channel(s) : 2 channels
Channel positions : Front: L R
Sampling rate : 48.0 KHz
Bit depth : 16 bits
Compression mode : Lossy
Stream size : 72.0 MiB (11%)
Alignment : Split accross interleaves
Interleave, duration : 40 ms (1.00 video frame)
Interleave, preload duration : 500 ms
Download / Скачать

Хотите скачать бесплатно? Зарегистрируйтесь на сайте (ссылка на регистрацию). Pirat.ca - самый быстрый торрент трекер в рунете!

Как скачивать  ·   Что такое торрент  ·   Рейтинг и ограничения

Показать сообщения:    
Ответить на тему

Текущее время: Сегодня 08:01

Часовой пояс: GMT + 4



Вы не можете начинать темы
Вы не можете отвечать на сообщения
Вы не можете редактировать свои сообщения
Вы не можете удалять свои сообщения
Вы не можете голосовать в опросах
Вы не можете прикреплять файлы к сообщениям
Вы не можете скачивать файлы

▼ Вниз