ML
     
  Уважаемый Гость!
Вы можете поддержать проект и зарегистрироваться у наших партнеров - онлайн-стратегия MyLands. При регистрации в игре Вы получите код, который сможете активировать после регистрации на pirat.ca и получить 1000 дублонов.

Ваш код:
e93cd9e43017f251127f220889864c05934e61c6
 
     

1944. Битва за Крым / (Роман Сафронов) [2014 г., документальный]

Ответить на тему
 
Автор
Сообщение

Пост 25-Май-2014 20:22

[Q] 

okorm

-1944. Битва за Крым-- Производство: Россия
Жанр: документальный
Год выпуска: 2014 г.
Продолжительность: 00:44:02
Перевод: Не требуется
Оригинальный аудиопоток: русский
Режиссер: Роман Сафронов-Описание: 26 декабря 1943 года. Крым. Группировка фашистского вермахта только что отметила Рождество и на Новый год запаслась деликатесами со всей Европы. Попировать им не удастся. Морские десанты Красной Армии молниеносным ударом отбивают Керчь и Феодосию. Но что дальше? Дороги раскисли, подвоз снарядов невозможен. Образуется самый необычный фронт Великой Отечественной – протяженностью всего 16 километров, где сконцентрированы шестьсот тысяч человек и десять тысяч орудий. Документальный фильм расскажет, почему Красная Армия сначала потерпела сокрушительное поражение, и как будущий маршал Советского Союза Толбухин нашел способ "преподнести немцам несколько неприятных сюрпризов..." Авторы отправятся на места сражений и своими глазами увидят, какие особенности природы полуострова сыграли роковую роль в успехе битвы за Крым.-Качество видео: HDTVRip
Контейнер: AVI
Видео кодек: XviD
Аудио кодек: AC3
Видео: XviD, 720x400, (1.8:1), 1697 kbps avg, 25 fps, 0.24 bit/pixel
Аудио: 48 kHz, Audio Coding 3, 2 ch, ~192.00 kbps avg
Cубтитры: отсутствуют
General
Complete name : K:\1944.Bitva za Krym.HDTVRip.avi
Format : AVI
Format/Info : Audio Video Interleave
File size : 598 MiB
Duration : 44mn 2s
Overall bit rate : 1 899 Kbps
Video
ID : 0
Format : MPEG-4 Visual
Format profile : Advanced [email protected]
Format settings, BVOP : 2
Format settings, QPel : No
Format settings, GMC : No warppoints
Format settings, Matrix : Default (H.263)
Codec ID : XVID
Codec ID/Hint : XviD
Duration : 44mn 2s
Bit rate : 1 697 Kbps
Width : 720 pixels
Height : 400 pixels
Display aspect ratio : 16:9
Frame rate : 25.000 fps
Color space : YUV
Chroma subsampling : 4:2:0
Bit depth : 8 bits
Scan type : Progressive
Compression mode : Lossy
Bits/(Pixel*Frame) : 0.236
Stream size : 534 MiB (89%)
Writing library : XviD 1.2.1 (UTC 2008-12-04)
Audio
ID : 1
Format : AC-3
Format/Info : Audio Coding 3
Mode extension : CM (complete main)
Format settings, Endianness : Big
Codec ID : 2000
Duration : 44mn 2s
Bit rate mode : Constant
Bit rate : 192 Kbps
Channel(s) : 2 channels
Channel positions : Front: L R
Sampling rate : 48.0 KHz
Bit depth : 16 bits
Compression mode : Lossy
Stream size : 60.5 MiB (10%)
Alignment : Aligned on interleaves
Interleave, duration : 40 ms (1.00 video frame)
Interleave, preload duration : 512 ms
Download / Скачать

Хотите скачать бесплатно? Зарегистрируйтесь на сайте (ссылка на регистрацию). Pirat.ca - самый быстрый торрент трекер в рунете!

Как скачивать  ·   Что такое торрент  ·   Рейтинг и ограничения

Voldemartop

Легенда

1547

Пост 26-Май-2014 11:51 (спустя 15 часов)

[Q] 

Благо Дарю okorm!!!
Автору респект!!! +

_________________


МОИ РАЗДАЧИ
[Профиль]  [ЛС] 
Показать сообщения:    
Ответить на тему

Текущее время: Сегодня 04:22

Часовой пояс: GMT + 4



Вы не можете начинать темы
Вы не можете отвечать на сообщения
Вы не можете редактировать свои сообщения
Вы не можете удалять свои сообщения
Вы не можете голосовать в опросах
Вы не можете прикреплять файлы к сообщениям
Вы не можете скачивать файлы

▼ Вниз