ML
     
  Уважаемый Гость!
Вы можете поддержать проект и зарегистрироваться у наших партнеров - онлайн-стратегия MyLands. При регистрации в игре Вы получите код, который сможете активировать после регистрации на pirat.ca и получить 1000 дублонов.

Ваш код:
500cb7bd8d2cec9a8aba647a87ce41c4b76f06bd
 
     

Под грохот канонад: "Синий платочек" против "Лили Марлен" / (Алексей Быстрицкий) [2014 г., документальный]

Ответить на тему
 
Автор
Сообщение

Пост 25-Май-2014 20:45

[Q] 

okorm

-Под грохот канонад: "Синий платочек" против "Лили Марлен"-- Производство: Россия
Жанр: документальный
Год выпуска: 2014 г.
Продолжительность: 00:43:18
Перевод: Не требуется
Оригинальный аудиопоток: русский
Режиссер: Алексей Быстрицкий-Описание: 1963 год. Первый и единственный приезд великой Марлен Дитрих в СССР.
Перед отъездом из Советского Союза актриса попросила купить ей на память пластинку с песней "Синий платочек": "Я много раз слышала эту песню в переводе, но всегда мечтала услышать в оригинале…"
Говорят, что прямо в номере она завела пластинку и долго слушала голос Клавдии Шульженко, а потом произнесла: "Теперь я понимаю, почему русские выиграли войну".
Этот фильм - о неизвестной стороне сражений Великой Отечественной войны, о том, как воевала песня. Годы войны подтвердили, что песня – это настоящее оружие.
Почему "Синий платочек" дошел до Берлина? Как незатейливой советской песне удалось победить в музыкальном сражении?
Эта история и другие неизвестные страницы Великой Отечественной в фильме будут рассказаны через песни.-Качество видео: SATRip
Контейнер: AVI
Видео кодек: XviD
Аудио кодек: MP3
Видео: 720x400 (1.80:1), 25 fps, XviD build 64 ~1740 kbps avg, 0.24 bit/pixel
Аудио: 48 kHz, MPEG Layer 3, 2 ch, ~128.00 kbps avg
Cубтитры: отсутствуют
Формат : AVI
Формат/Информация : Audio Video Interleave
Размер файла : 582 Мбайт
Продолжительность : 43 м.
Общий поток : 1878 Кбит/сек
Библиотека кодирования : VirtualDub build 30009/release
Видео
Идентификатор : 0
Формат : MPEG-4 Visual
Профиль формата : Advanced [email protected]
Параметр BVOP формата : 1
Параметр QPel формата : Нет
Параметр GMC формата : Без точки перехода
Параметр матрицы формата : Default (MPEG)
Идентификатор кодека : XVID
Идентификатор кодека/Подсказка : XviD
Продолжительность : 43 м.
Битрейт : 1740 Кбит/сек
Ширина : 720 пикселей
Высота : 400 пикселей
Соотношение сторон : 16:9
Частота кадров : 25,000 кадров/сек
Цветовое пространство : YUV
Субдискретизация насыщенности : 4:2:0
Битовая глубина : 8 бит
Тип развёртки : Прогрессивная
Метод сжатия : С потерями
Бит/(Пиксели*Кадры) : 0.242
Размер потока : 539 Мбайт (93%)
Библиотека кодирования : XviD 64
Аудио
Идентификатор : 1
Формат : MPEG Audio
Версия формата : Version 1
Профиль формата : Layer 3
Режим : Joint stereo
Расширение режима : MS Stereo
Идентификатор кодека : 55
Идентификатор кодека/Подсказка : MP3
Продолжительность : 43 м.
Вид битрейта : Постоянный
Битрейт : 128 Кбит/сек
Каналы : 2 канала
Частота : 48,0 КГц
Метод сжатия : С потерями
Размер потока : 39,6 Мбайт (7%)
Выравнивание : Разделение по промежуткам
Продолжительность промежутка : 40 мс. (1,00 видеокадр)
Время предзагрузки промежутка : 500 мс.
Download / Скачать

Хотите скачать бесплатно? Зарегистрируйтесь на сайте (ссылка на регистрацию). Pirat.ca - самый быстрый торрент трекер в рунете!

Как скачивать  ·   Что такое торрент  ·   Рейтинг и ограничения

Показать сообщения:    
Ответить на тему

Текущее время: Сегодня 01:46

Часовой пояс: GMT + 4



Вы не можете начинать темы
Вы не можете отвечать на сообщения
Вы не можете редактировать свои сообщения
Вы не можете удалять свои сообщения
Вы не можете голосовать в опросах
Вы не можете прикреплять файлы к сообщениям
Вы не можете скачивать файлы

▼ Вниз