ML
     
  Уважаемый Гость!
Вы можете поддержать проект и зарегистрироваться у наших партнеров - онлайн-стратегия MyLands. При регистрации в игре Вы получите код, который сможете активировать после регистрации на pirat.ca и получить 1000 дублонов.

Ваш код:
500cb7bd8d2cec9a8aba647a87ce41c4b76f06bd
 
     

872 дня Ленинграда / Серии: 1-4 из 4 (С. Лозница) [2014 г., документальный]

Ответить на тему
 
Автор
Сообщение

Пост 25-Май-2014 21:22

[Q] 

okorm

-872 дня Ленинграда-- Производство: Россия
Жанр: документальный
Год выпуска: 2014 г.
Продолжительность: 4 х 00:38:10
Перевод: Не требуется
Оригинальный аудиопоток: русский
Режиссер: С. Лозница-Описание: Блокада…
Это слово для большинства наших соотечественников неразделимо с именем города на Неве – с Ленинградом. 872 дня голода, холода, бомбардировок и артобстрелов так и не смогли сломить дух и волю защитников Ленинграда и его жителей. В нечеловеческих условиях город не просто выстоял и выжил. Он продолжал ежедневно бороться с врагом, а на его предприятиях выпускалось оружие и боеприпасы. В нем спасали произведения искусства, продолжали работать ученые. Люди умирали от голода прямо на улице, но все равно в большинстве своем продолжали оставаться людьми.
1. Последний рубеж
Согласно "плану Барбаросса", на все боевые действия против СССР отводилось 3 месяца. Захватить Ленинград, стереть его с лица земли, было для Гитлера чуть ли не первостепенной задачей. Несмотря на кровопролитные бои и сопротивление Красной Армии, 8 июля войска Вермахта оккупировали Псков, 6 августа - Новгород, 17 августа - Кингисепп, 24 августа - Лугу. 1 сентября на севере от Ленинграда финские войска выходят к границе 39-го года и останавливаются перед Карельским укрепрайоном. 10 сентября, захватив Воронью гору под Красным Селом, немецкие войска замкнули кольцо вокруг Ленинграда.
2. Фронту надо – сделаем!
Многие промышленные предприятия Ленинграда были эвакуированы вместе с оборудованием, сырьем и персоналом. На оставшиеся предприятия города легла повышенная нагрузка - им предстояло увеличить выпуск продукции военного назначения, а гражданские заводы и фабрики переводились на выпуск военной продукции. Не хватало электроэнергии, сырья, топлива и квалифицированных рабочих. От истощения немногие могли работать в полную силу. Однако предприятия продолжали работать, снабжая военной продукцией не только защитников Ленинграда, но и отправляя свою продукцию на "большую землю", бойцам других фронтов.
3. В голодной петле
"Человек привыкает ко всему - к опасностям, к антисанитарии, к отсутствию простых бытовых удобств. Даже холод человек со временем переносит легче. Единственное, к чему он никогда не привыкнет - это к чувству голода. За годы блокады Ленинграда, по разным источникам, погибло от 700 тысяч до полутора миллиона человек. И лишь 2-3 % из этого количества погибли при бомбардировках и артобстрелах. Остальные умерли от голода.
4. Город живых
Ленинград - город мертвых. Мы не берем его пока только потому, что боимся эпидемии. Мы стерли этот город с лица земли", - говорилось в немецких листовках. Однако, несмотря на бомбардировки и артобстрелы, на голод и холод, в полностью блокированном городе продолжалась жизнь. Даже в самое тяжелое время, в Ленинграде продолжали работать театры и филармония, постоянно транслировались передачи Ленинградского радио и демонстрировались кинофильмы. Умирая от голода, работники музеев спасали бесценные экспонаты. В это жуткое время люди продолжали оставаться людьми
-Качество видео: SATRip
Контейнер: AVI
Видео кодек: DivX
Аудио кодек: MP3
Видео: 704x400 (1.76:1), 25 fps, DivX, ~ 1503 kbps avg, 0.21 bit/pixel
Аудио: 44.100 kHz, MPEG Layer 3, 2 ch, ~128.00 kbps avg
Cубтитры: отсутствуют
872.dnja.Leningrada.(4.serii.iz.4).2014.DivX.SATRip.alf62\872.dnja.Leningrada.(1.serija.iz.4).Poslednij.rubezh.2014.DivX.SATRip.alf62.avi
Format : AVI
Format/Info : Audio Video Interleave
File size : 453 MiB
Duration : 38mn 38s
Overall bit rate : 1 638 Kbps
Writing library : Boilsoft Joiner build 2411/release
Video
ID : 0
Format : MPEG-4 Visual
Format profile : Advanced [email protected]
Format settings, BVOP : 2
Format settings, QPel : No
Format settings, GMC : No warppoints
Format settings, Matrix : Default (MPEG)
Codec ID : DX50
Codec ID/Hint : DivX 5
Duration : 38mn 38s
Bit rate : 1 500 Kbps
Width : 704 pixels
Height : 400 pixels
Display aspect ratio : 16:9
Frame rate : 25.000 fps
Color space : YUV
Chroma subsampling : 4:2:0
Bit depth : 8 bits
Scan type : Progressive
Compression mode : Lossy
Bits/(Pixel*Frame) : 0.213
Stream size : 414 MiB (92%)
Writing library : XviD 73
Audio
ID : 1
Format : MPEG Audio
Format version : Version 1
Format profile : Layer 3
Codec ID : 55
Codec ID/Hint : MP3
Duration : 38mn 38s
Bit rate mode : Constant
Bit rate : 128 Kbps
Channel count : 2 channels
Sampling rate : 44.1 KHz
Compression mode : Lossy
Stream size : 35.4 MiB (8%)
Alignment : Split accross interleaves
Interleave, duration : 40 ms (1.00 video frame)
Interleave, preload duration : 500 ms
Writing library : LAME3.99r
Encoding settings : -m s -V 4 -q 2 -lowpass 17 -b 128
Download / Скачать

Хотите скачать бесплатно? Зарегистрируйтесь на сайте (ссылка на регистрацию). Pirat.ca - самый быстрый торрент трекер в рунете!

Как скачивать  ·   Что такое торрент  ·   Рейтинг и ограничения



Последний раз редактировалось: okorm (2014-05-27 12:57), всего редактировалось 2 раз(а)
Показать сообщения:    
Ответить на тему

Текущее время: Сегодня 01:45

Часовой пояс: GMT + 4



Вы не можете начинать темы
Вы не можете отвечать на сообщения
Вы не можете редактировать свои сообщения
Вы не можете удалять свои сообщения
Вы не можете голосовать в опросах
Вы не можете прикреплять файлы к сообщениям
Вы не можете скачивать файлы

▼ Вниз