ML
     
  Уважаемый Гость!
Вы можете поддержать проект и зарегистрироваться у наших партнеров - онлайн-стратегия MyLands. При регистрации в игре Вы получите код, который сможете активировать после регистрации на pirat.ca и получить 1000 дублонов.

Ваш код:
5f4e94775bc0501caff7b254e79328d304c817d9
 
     

Непокоренные / (Людмила Снигирева, Наталья Пешкова) [2014 г., документаьный]

Ответить на тему
 
Автор
Сообщение

Пост 25-Май-2014 21:39

[Q] 

okorm

-Непокоренные-- Производство: Россия
Жанр: документаьный
Год выпуска: 2014 г.
Продолжительность: 00:52:13
Перевод: Не требуется
Оригинальный аудиопоток: русский
Режиссер: Людмила Снигирева, Наталья Пешкова-Описание: Фильм о невероятной стойкости ленинградцев, которая, в итоге, и спасла город. Спасла вопреки голоду, холоду и бомбежкам. Вопреки логике врага и человеческим возможностям. Главный герой нашего фильма – 97-летний Иван Шульга. Он единственный ныне живущий водитель грузовика, который эвакуировал людей по знаменитой "Дороге жизни" через Ладогу. Он спас тысячи жизней, и сегодня вместе с нами вновь вернется на берег Ладоги, на котором не стоял вот уже 70 лет. Вернется, чтобы рассказать нам о событиях тех страшных лет. И впервые встретится с теми, кого спасал в годы блокады Ленинграда.-Качество видео: SATRip
Контейнер: AVI
Видео кодек: DivX
Аудио кодек: MP3
Видео: DivX, 720x400, (1.8:1), 1801 kbps avg, 25 fps, 0.25 bit/pixel
Аудио: 48 kHz, MPEG Audio Layer 3, 2 ch, ~128.00 kbps avg
Cубтитры: отсутствуют
General
Complete name : K:\Nepokorennye.SATRip.avi
Format : AVI
Format/Info : Audio Video Interleave
File size : 724 MiB
Duration : 52mn 13s
Overall bit rate : 1 939 Kbps
Video
ID : 0
Format : MPEG-4 Visual
Format settings, BVOP : 1
Format settings, QPel : No
Format settings, GMC : No warppoints
Format settings, Matrix : Default (H.263)
Codec ID : DX50
Codec ID/Hint : DivX 5
Duration : 52mn 13s
Bit rate : 1 801 Kbps
Width : 720 pixels
Height : 400 pixels
Display aspect ratio : 16:9
Frame rate : 25.000 fps
Color space : YUV
Chroma subsampling : 4:2:0
Bit depth : 8 bits
Scan type : Progressive
Compression mode : Lossy
Bits/(Pixel*Frame) : 0.250
Stream size : 673 MiB (93%)
Writing library : DivX 6.8.5 (UTC 2009-08-20)
Audio
ID : 1
Format : MPEG Audio
Format version : Version 1
Format profile : Layer 3
Mode : Joint stereo
Mode extension : MS Stereo
Codec ID : 55
Codec ID/Hint : MP3
Duration : 52mn 13s
Bit rate mode : Constant
Bit rate : 128 Kbps
Channel(s) : 2 channels
Sampling rate : 48.0 KHz
Compression mode : Lossy
Stream size : 47.8 MiB (7%)
Alignment : Split accross interleaves
Interleave, duration : 40 ms (1.00 video frame)
Interleave, preload duration : 500 ms
Writing library : LAME3.98.2ЄЄЄЄЄЄЄЄЄ
Download / Скачать

Хотите скачать бесплатно? Зарегистрируйтесь на сайте (ссылка на регистрацию). Pirat.ca - самый быстрый торрент трекер в рунете!

Как скачивать  ·   Что такое торрент  ·   Рейтинг и ограничения

Показать сообщения:    
Ответить на тему

Текущее время: Сегодня 15:37

Часовой пояс: GMT + 4



Вы не можете начинать темы
Вы не можете отвечать на сообщения
Вы не можете редактировать свои сообщения
Вы не можете удалять свои сообщения
Вы не можете голосовать в опросах
Вы не можете прикреплять файлы к сообщениям
Вы не можете скачивать файлы

▼ Вниз