ML
     
  Уважаемый Гость!
Вы можете поддержать проект и зарегистрироваться у наших партнеров - онлайн-стратегия MyLands. При регистрации в игре Вы получите код, который сможете активировать после регистрации на pirat.ca и получить 1000 дублонов.

Ваш код:
0ea1bf889af42fca5f67d0a391efb3400850ad7c
 
     

Первая Мировая. Самоубийство Европы /Серии: 1-2 из 2 (Алексей Денисов) [2014 г., документальный]

Ответить на тему
 
Автор
Сообщение

Пост 26-Май-2014 09:44

[Q] 

okorm

-Первая Мировая. Самоубийство Европы-- Производство: Россия
Жанр: документальный
Год выпуска: 2014 г.
Продолжительность: 01:26:31
Перевод: Не требуется
Оригинальный аудиопоток: русский
Режиссер: Алексей Денисов-Описание: Рассказ о том как началась Первая мировая война. Зритель узнает, какое будущее могло бы быть уготовано Европе в случае германской победы. Это стало особенно понятно после того, как немцы взяли Брюссель. Ведущий фильма Федор Бондарчук расскажет о том, почему для военных элит всех противоборствующих государств реалии новой войны оказались неожиданными и в экономическом плане, и в военном. Также внимание уделено и дому Романовых, который стал для России символом национальной консолидации перед лицом внешней угрозы. Кровавый маховик Первой мировой войны был остановлен осенью 1918 года. Зритель узнает о финальном акте этой трагедии, который был разыгран в Компьенском лесу на запасных путях станции Ретонд в 70 км от Парижа. Ведущий фильма Федор Бондарчук расскажет о попытках германского командования вывести Россию из войны, а также о талантливых русских военачальниках - генерале Алексее Брусилове и не менее знаменитом генерале Юдениче.
1-я серия. Рассказ о том как началась Первая мировая война. Зритель узнает, какое будущее могло бы быть уготовано Европе в случае германской победы. Это стало особенно понятно после того, как немцы взяли Брюссель. Ведущий фильма Федор Бондарчук расскажет о том, почему для военных элит всех противоборствующих государств реалии новой войны оказались неожиданными и в экономическом плане, и в военном. Также внимание уделено и дому Романовых, который стал для России символом национальной консолидации перед лицом внешней угрозы. В конце октября 1914 года турецкий флот под командованием германских инструкторов внезапно атаковал русские порты в Черном море. Благодаря стойкости русского солдата и блестящим действиям генерала Юденича наступившие на Сарыкамыш турецкие войска потерпели сокрушительное поражение. Первая мировая война продолжалась 1568 дней. Счет убитых людей шел в ней на миллионы. Так, переступив порог XX века, вместо обещанного просветителями земного рая человечество шагнуло в адскую бездну.
2-я серия. Кровавый маховик Первой мировой войны был остановлен осенью 1918 года. Зритель узнает о финальном акте этой трагедии, который был разыгран в Компьенском лесу на запасных путях станции Ретонд в 70 км от Парижа. Ведущий фильма Федор Бондарчук расскажет о попытках германского командования вывести Россию из войны, а также о талантливых русских военачальниках - генерале Алексее Брусилове и не менее знаменитом генерале Юдениче. Но основные неприятности ждали Россию впереди. Осенью 1916 года представители столичной интеллигенции и депутаты Госдумы начали готовить дворцовой переворот для свержения царского режима, который они объявили постыдным. В итоге, лишившись армии, Россия сдалась даже проигравшей войну Германии. В советское время все захоронения русских солдат и офицеров Первой мировой войны в нашей стране были уничтожены. Сегодня их можно увидеть только за границей. Последние, не изменившие присяге воины экспедиционного корпуса сражались до конца войны в созданном ими Русском Легионе Чести. Возле кладбища установлен обелиск, на котором выбиты слова: "Дети Франции, когда вы сможете свободно собирать цветы на этом поле, вспомните нас, ваших русских друзей и принесите нам цветы..."
-Качество видео: HDTVRip
Контейнер: AVI
Видео кодек: XviD
Аудио кодек: AC3
Видео: XviD, 720x400, (1.8:1), 1720 kbps avg, 25 fps, 0.24 bit/pixel
Аудио: 48 kHz, Audio Coding 3, 2 ch, ~192.00 kbps avg
Cубтитры: отсутствуют
General
Complete name : K:\Первая Мировая. Самоубийство Европы.HDTVRip.avi
Format : AVI
Format/Info : Audio Video Interleave
File size : 1.16 GiB
Duration : 1h 26mn
Overall bit rate : 1 922 Kbps
Writing application : VirtualDubMod 1.5.10.3 | www.virtualdub-fr.org || (build 2550/release)
Writing library : VirtualDubMod build 2550/release
Video
ID : 0
Format : MPEG-4 Visual
Format profile : Advanced [email protected]
Format settings, BVOP : 2
Format settings, QPel : No
Format settings, GMC : No warppoints
Format settings, Matrix : Default (MPEG)
Codec ID : XVID
Codec ID/Hint : XviD
Duration : 1h 26mn
Bit rate : 1 720 Kbps
Width : 720 pixels
Height : 400 pixels
Display aspect ratio : 16:9
Frame rate : 25.000 fps
Color space : YUV
Chroma subsampling : 4:2:0
Bit depth : 8 bits
Scan type : Progressive
Compression mode : Lossy
Bits/(Pixel*Frame) : 0.239
Stream size : 1.04 GiB (90%)
Writing library : XviD 1.2.1 (UTC 2008-12-04)
Audio
ID : 1
Format : AC-3
Format/Info : Audio Coding 3
Mode extension : CM (complete main)
Format settings, Endianness : Big
Codec ID : 2000
Duration : 1h 26mn
Bit rate mode : Constant
Bit rate : 192 Kbps
Channel(s) : 2 channels
Channel positions : Front: L R
Sampling rate : 48.0 KHz
Bit depth : 16 bits
Compression mode : Lossy
Stream size : 119 MiB (10%)
Alignment : Split accross interleaves
Interleave, duration : 40 ms (1.00 video frame)
Interleave, preload duration : 500 ms
Download / Скачать

Хотите скачать бесплатно? Зарегистрируйтесь на сайте (ссылка на регистрацию). Pirat.ca - самый быстрый торрент трекер в рунете!

Как скачивать  ·   Что такое торрент  ·   Рейтинг и ограничения

immortal_ul

Штурман

Пост 27-Май-2014 23:01 (спустя 1 день 13 часов)

[Q] 

Спасибо, заценим
[Профиль]  [ЛС] 

lecsij

Штурман

Пост 08-Июл-2014 15:36 (спустя 1 месяц 11 дней)

[Q] 

Спасибо, в школе говорили что была война, а что происходило молчали.
[Профиль]  [ЛС] 
Показать сообщения:    
Ответить на тему

Текущее время: Сегодня 00:32

Часовой пояс: GMT + 4



Вы не можете начинать темы
Вы не можете отвечать на сообщения
Вы не можете редактировать свои сообщения
Вы не можете удалять свои сообщения
Вы не можете голосовать в опросах
Вы не можете прикреплять файлы к сообщениям
Вы не можете скачивать файлы

▼ Вниз