ML
     
  Уважаемый Гость!
Вы можете поддержать проект и зарегистрироваться у наших партнеров - онлайн-стратегия MyLands. При регистрации в игре Вы получите код, который сможете активировать после регистрации на pirat.ca и получить 1000 дублонов.

Ваш код:
f612af22ea70acf5cbe90707ac5a076d215f8f7f
 
     

Кузькина мать. Итоги. БАМ – Молодец! / (Иван Савенков и Андрей Кияница) [2014 г., документальный]

Ответить на тему
 
Автор
Сообщение

Пост 26-Май-2014 15:12

[Q] 

okorm

-Кузькина мать. Итоги. БАМ – Молодец!-- Производство: Россия
Жанр: документальный
Год выпуска: 2014 г.
Продолжительность: 00:44:00
Перевод: Не требуется
Оригинальный аудиопоток: русский
Режиссер: Иван Савенков и Андрей Кияница-Описание: На рубеже 70-х годов 20 века Советскому Союзу угрожали две серьезные опасности. Отношения с Китаем обострились до предела. Постоянно шли пограничные столкновения и гибли люди. Советское руководство стал преследовать навязчивый кошмар: толпы китайских солдат хлынули через границу, перерезали Транссибирскую железную дорогу, и половина страны оказалась в изоляции от центра. Стало ясно, что нужна новая транспортная артерия, которая свяжет Москву с Сибирью и Дальним Востоком, но будет проходить на безопасном расстоянии от границы.
В это время США совершили серьезный рывок и обошли нас в точности стратегических ядерных ракет. Если бы началась война, при первом же ударе они могли уничтожить советский атомный арсенал.
В ответ Советский Союз запустил два масштабных проекта: строительство Байкало-Амурской магистрали - БАМа - и создание боевых железнодорожных ракетных комплексов – БЖРК.
В фильме принимают участие: маршал Советского Союза Дмитрий Язов, академики РАН Алексей Арбатов и Алексей Уткин, ветераны БАМа Александр Бондарь, Иван Варшавский, Александр Дудников, народный артист СССР Иосиф Кобзон, летчик-космонавт Валентин Лебедев, а также другие ученые, военные и журналисты.-Качество видео: SATRip
Контейнер: AVI
Видео кодек: XviD
Аудио кодек: MP3
Видео: 720x432 (1.67:1), 25 fps, XviD build 64 ~1744 kbps avg, 0.22 bit/pixel
Аудио: 48 kHz, MPEG Layer 3, 2 ch, ~128.00 kbps avg
Cубтитры: отсутствуют
Формат : AVI
Формат/Информация : Audio Video Interleave
Размер файла : 593 Мбайт
Продолжительность : 44 м.
Общий поток : 1883 Кбит/сек
Библиотека кодирования : VirtualDub build 30009/release
Видео
Идентификатор : 0
Формат : MPEG-4 Visual
Профиль формата : Advanced [email protected]
Параметр BVOP формата : 2
Параметр QPel формата : Нет
Параметр GMC формата : Без точки перехода
Параметр матрицы формата : Default (MPEG)
Идентификатор кодека : XVID
Идентификатор кодека/Подсказка : XviD
Продолжительность : 44 м.
Битрейт : 1745 Кбит/сек
Ширина : 720 пикселей
Высота : 432 пикселя
Соотношение сторон : 1,667
Частота кадров : 25,000 кадров/сек
Цветовое пространство : YUV
Субдискретизация насыщенности : 4:2:0
Битовая глубина : 8 бит
Тип развёртки : Прогрессивная
Метод сжатия : С потерями
Бит/(Пиксели*Кадры) : 0.224
Размер потока : 549 Мбайт (93%)
Библиотека кодирования : XviD 64
Аудио
Идентификатор : 1
Формат : MPEG Audio
Версия формата : Version 1
Профиль формата : Layer 3
Режим : Joint stereo
Расширение режима : MS Stereo
Идентификатор кодека : 55
Идентификатор кодека/Подсказка : MP3
Продолжительность : 44 м.
Вид битрейта : Постоянный
Битрейт : 128 Кбит/сек
Каналы : 2 канала
Частота : 48,0 КГц
Метод сжатия : С потерями
Размер потока : 40,3 Мбайт (7%)
Выравнивание : Разделение по промежуткам
Продолжительность промежутка : 40 мс. (1,00 видеокадр)
Время предзагрузки промежутка : 500 мс.
Download / Скачать

Хотите скачать бесплатно? Зарегистрируйтесь на сайте (ссылка на регистрацию). Pirat.ca - самый быстрый торрент трекер в рунете!

Как скачивать  ·   Что такое торрент  ·   Рейтинг и ограничения

kmv01

Гроза морей

Пост 26-Май-2014 15:37 (спустя 25 минут)

[Q] 

История, однако... Интересно будет посмотреть!
[Профиль]  [ЛС] 

immortal_ul

Штурман

Пост 27-Май-2014 23:00 (спустя 1 день 7 часов)

[Q] 

Интересно, посмотрим
Лови бочку
[Профиль]  [ЛС] 

lobzey

Лоцман

Пост 30-Май-2014 12:11 (спустя 2 дня 13 часов)

[Q] 

Фильм превосходный. Посмотрел на одном дыхании. Сам работаю на железной дороге на БАМе, а мои родители и были теми комсомольцами, мне эта тема особо близка. Думаю, что далеким от БАМа людям тоже будет интересно посмотреть про то, какую цель ставило государство в начале строительства, и какую совершенно иную роль БАМ играет сегодня.
[Профиль]  [ЛС] 

Trianon777

Морской Волк

Пост 09-Ноя-2014 01:56 (спустя 5 месяцев 9 дней)

[Q] 

СПАСИБО за раздачу! Действительно, НАША история, однако...
[Профиль]  [ЛС] 
Показать сообщения:    
Ответить на тему

Текущее время: Сегодня 00:25

Часовой пояс: GMT + 4



Вы не можете начинать темы
Вы не можете отвечать на сообщения
Вы не можете редактировать свои сообщения
Вы не можете удалять свои сообщения
Вы не можете голосовать в опросах
Вы не можете прикреплять файлы к сообщениям
Вы не можете скачивать файлы

▼ Вниз