ML
     
  Уважаемый Гость!
Вы можете поддержать проект и зарегистрироваться у наших партнеров - онлайн-стратегия MyLands. При регистрации в игре Вы получите код, который сможете активировать после регистрации на pirat.ca и получить 1000 дублонов.

Ваш код:
4fbd9898b6f10799a3e8edf60f31febd2bc15453
 
     

1913-й. Мифы и реальность / (Петр Соловьев) [2014 г., документальный]

Ответить на тему
 
Автор
Сообщение

Пост 26-Май-2014 15:52

[Q] 

okorm

-1913-й. Мифы и реальность-- Производство: Россия
Жанр: документальный
Год выпуска: 2014 г.
Продолжительность: 00:44:57
Перевод: Не требуется
Оригинальный аудиопоток: русский
Режиссер: Петр Соловьев-Описание: За 13 первых лет ХХ века Российская империя проделала гигантский путь – от технически отсталой аграрной страны, "колосса на глиняных ногах", до полноправного члена клуба сверхдержав. В 1913 году Российская империя занимала шестую часть суши. Ее население составляло 170 миллионов человек. По размеру ВВП страна уже вышла на четвертое место в мире, а по темпам роста экономика России была абсолютным лидером. Она обладала крупнейшими в мире запасами природных ресурсов, а царский рубль был обеспечен на 100 процентов. У остальных стран, входивших в так называемый "золотой клуб", покрытие составляло меньше половины. Расходы на перевооружение армии составляли почти треть бюджета. Благодаря чему и кому состоялось это чудесное превращение? И почему страна, небезосновательно претендовавшая на мировое господство и пребывавшая на пике могущества, через четыре года исчезла с карты планеты?-Качество видео: HD DVDRip
Контейнер: AVI
Видео кодек: XviD
Аудио кодек: MP3
Видео: XviD, 720x400, (1.8:1), 1447 kbps avg, 25 fps, 0.20 bit/pixel
Аудио: 48 kHz, Audio Coding 3, 2 ch, ~192.00 kbps avg
Cубтитры: отсутствуют
General
Complete name : K:\1913-й. Мифы и реальность.avi
Format : AVI
Format/Info : Audio Video Interleave
File size : 530 MiB
Duration : 44mn 57s
Overall bit rate : 1 648 Kbps
Writing application : VirtualDubMod 1.5.10.3 | www.virtualdub-fr.org || (build 2550/release)
Writing library : VirtualDubMod build 2550/release
Video
ID : 0
Format : MPEG-4 Visual
Format profile : Advanced [email protected]
Format settings, BVOP : 2
Format settings, QPel : No
Format settings, GMC : No warppoints
Format settings, Matrix : Default (MPEG)
Codec ID : XVID
Codec ID/Hint : XviD
Duration : 44mn 57s
Bit rate : 1 447 Kbps
Width : 720 pixels
Height : 400 pixels
Display aspect ratio : 16:9
Frame rate : 25.000 fps
Color space : YUV
Chroma subsampling : 4:2:0
Bit depth : 8 bits
Scan type : Progressive
Compression mode : Lossy
Bits/(Pixel*Frame) : 0.201
Stream size : 465 MiB (88%)
Writing library : XviD 1.2.1 (UTC 2008-12-04)
Audio
ID : 1
Format : AC-3
Format/Info : Audio Coding 3
Mode extension : CM (complete main)
Format settings, Endianness : Big
Codec ID : 2000
Duration : 44mn 56s
Bit rate mode : Constant
Bit rate : 192 Kbps
Channel(s) : 2 channels
Channel positions : Front: L R
Sampling rate : 48.0 KHz
Bit depth : 16 bits
Compression mode : Lossy
Stream size : 61.7 MiB (12%)
Alignment : Split accross interleaves
Interleave, duration : 40 ms (1.00 video frame)
Interleave, preload duration : 500 ms
Download / Скачать

Хотите скачать бесплатно? Зарегистрируйтесь на сайте (ссылка на регистрацию). Pirat.ca - самый быстрый торрент трекер в рунете!

Как скачивать  ·   Что такое торрент  ·   Рейтинг и ограничения

Показать сообщения:    
Ответить на тему

Текущее время: Сегодня 20:00

Часовой пояс: GMT + 4



Вы не можете начинать темы
Вы не можете отвечать на сообщения
Вы не можете редактировать свои сообщения
Вы не можете удалять свои сообщения
Вы не можете голосовать в опросах
Вы не можете прикреплять файлы к сообщениям
Вы не можете скачивать файлы

▼ Вниз