ML
     
  Уважаемый Гость!
Вы можете поддержать проект и зарегистрироваться у наших партнеров - онлайн-стратегия MyLands. При регистрации в игре Вы получите код, который сможете активировать после регистрации на pirat.ca и получить 1000 дублонов.

Ваш код:
47bfc18b89c74e4ae0d974e9b6943639e2bff08e
 
     

Косово. Как это было / (Александр Замыслов) [2014 г., документальный]

Ответить на тему
 
Автор
Сообщение

Пост 26-Май-2014 16:20

[Q] 

okorm

-Косово. Как это было-- Производство: Россия
Жанр: документальный
Год выпуска: 2014 г.
Продолжительность: 00:58:29
Перевод: Не требуется
Оригинальный аудиопоток: русский
Режиссер: Александр Замыслов-Описание: В этом фильме – история сербского края Косово. Уникальные кадры кинохроники, найденные в чудом сохранившемся на окраине Белграда архиве. Этот фильм снимался в 2007 году. Тогда – накануне провозглашения независимости Косова – авторы хотели рассказать о том, какой ценой создавался так называемый "косовский прецедент", поставивший под вопрос послевоенную систему европейской безопасности и международного права. Тогда Россия настаивала на том, что отторжение части территории суверенного государства откроет "ящик Пандоры", что рано или поздно запущенная западными политиками косовская модель бумерангом вернётся к ее создателям. Так и вышло. Уже три столетия Балканы называют "пороховой бочкой Европы". В 1941 году немецкие самолеты засеяли сербскую землю бомбами. А в 1944 году, на Пасху, в небе появились бомбардировщики американских освободителей, и... тоже осыпали землю смертельными "подарками". Уже тогда – задолго до появления НАТО – западные политики старались установить контроль над Балканами, применяя принцип "разделяй и властвуй".-Качество видео: HDTVRip
Контейнер: AVI
Видео кодек: XviD
Аудио кодек: AC3
Видео: XviD, 720x400, (1.8:1), 1599 kbps avg, 25 fps, 0.22 bit/pixel
Аудио: 48 kHz, Audio Coding 3, 2 ch, ~192.00 kbps avg
Cубтитры: отсутствуют
General
Complete name : K:\Косово.Как это было.HDTVRip.avi
Format : AVI
Format/Info : Audio Video Interleave
File size : 753 MiB
Duration : 58mn 29s
Overall bit rate : 1 801 Kbps
Writing application : VirtualDubMod 1.5.10.3 | www.virtualdub-fr.org || (build 2550/release)
Writing library : VirtualDubMod build 2550/release
Video
ID : 0
Format : MPEG-4 Visual
Format profile : Advanced [email protected]
Format settings, BVOP : 2
Format settings, QPel : No
Format settings, GMC : No warppoints
Format settings, Matrix : Default (MPEG)
Codec ID : XVID
Codec ID/Hint : XviD
Duration : 58mn 29s
Bit rate : 1 599 Kbps
Width : 720 pixels
Height : 400 pixels
Display aspect ratio : 16:9
Frame rate : 25.000 fps
Color space : YUV
Chroma subsampling : 4:2:0
Bit depth : 8 bits
Scan type : Progressive
Compression mode : Lossy
Bits/(Pixel*Frame) : 0.222
Stream size : 669 MiB (89%)
Writing library : XviD 1.2.1 (UTC 2008-12-04)
Audio
ID : 1
Format : AC-3
Format/Info : Audio Coding 3
Mode extension : CM (complete main)
Format settings, Endianness : Big
Codec ID : 2000
Duration : 58mn 29s
Bit rate mode : Constant
Bit rate : 192 Kbps
Channel(s) : 2 channels
Channel positions : Front: L R
Sampling rate : 48.0 KHz
Bit depth : 16 bits
Compression mode : Lossy
Stream size : 80.3 MiB (11%)
Alignment : Split accross interleaves
Interleave, duration : 40 ms (1.00 video frame)
Interleave, preload duration : 500 ms
Download / Скачать

Хотите скачать бесплатно? Зарегистрируйтесь на сайте (ссылка на регистрацию). Pirat.ca - самый быстрый торрент трекер в рунете!

Как скачивать  ·   Что такое торрент  ·   Рейтинг и ограничения

Voldemartop

Легенда

1547

Пост 26-Май-2014 22:34 (спустя 6 часов)

[Q] 

Благо Дарю okorm!!!
Нужная тематика!!!
Автору респект!!! +

_________________


МОИ РАЗДАЧИ
[Профиль]  [ЛС] 
Показать сообщения:    
Ответить на тему

Текущее время: Сегодня 07:04

Часовой пояс: GMT + 4



Вы не можете начинать темы
Вы не можете отвечать на сообщения
Вы не можете редактировать свои сообщения
Вы не можете удалять свои сообщения
Вы не можете голосовать в опросах
Вы не можете прикреплять файлы к сообщениям
Вы не можете скачивать файлы

▼ Вниз