ML
     
  Уважаемый Гость!
Вы можете поддержать проект и зарегистрироваться у наших партнеров - онлайн-стратегия MyLands. При регистрации в игре Вы получите код, который сможете активировать после регистрации на pirat.ca и получить 1000 дублонов.

Ваш код:
f612af22ea70acf5cbe90707ac5a076d215f8f7f
 
     

Острый Крым / (Дмитрий Крылов) [2014 г., документальный]

Ответить на тему
 
Автор
Сообщение

Пост 26-Май-2014 16:34

[Q] 

okorm

-Острый Крым-- Производство: Россия
Жанр: документальный
Год выпуска: 2014 г.
Продолжительность: 00:46:53
Перевод: Не требуется
Оригинальный аудиопоток: русский
Режиссер: Дмитрий Крылов-Описание: Крым всегда был особенным. И во времена Российской империи, и когда существовал Советский Союз, да и сейчас, в составе России. Здесь находилась резиденция Николая II, и Крым намертво отпечатался в памяти поколений как место гибели старой, дореволюционной России. Всесоюзная здравница, основная база Черноморского флота России. Крымский полуостров отделен от материка небольшим перешейком – Перекопом. За этой узкой полоской земли люди, живущие в Крыму, пытаются укрыться от потрясений, приходящих к ним с Большой земли. Так было во времена барона Врангеля, гражданской войны и красного террора, так происходит и сейчас, когда в Киеве делят власть и сжигают центр города. В противостоянии Востока и Запада Крым до сих пор ищет свое место, как будто пытаясь ответить себе на вопрос, чего в нем больше — украинского, русского или татарского.
Корреспондент НТВ Сергей Холошевский, автор фильма: «Наш фильм о том, как череда недальновидных решений, принятых политиками в разное время, сыграла злую шутку с людьми, населяющими полуостров. Как быстро стираются в памяти те идеалы, за которые воевали русские солдаты в Крымскую и в Великую Отечественную войну. Этот фильм о том, как живут и что чувствуют жители Крыма в период политического кризиса на Украине».-Качество видео: SATRip
Контейнер: AVI
Видео кодек: XviD
Аудио кодек: MP3
Видео: XviD, 720x448, (1.61:1), 1500 kbps avg, 25 fps, 0.19 bit/pixel
Аудио: 48 kHz, MPEG Layer 3, 1 ch, ~128.00 kbps avg
Cубтитры: отсутствуют
General
Complete name : K:\Ostryj.Krym.SATRip.avi
Format : AVI
Format/Info : Audio Video Interleave
File size : 549 MiB
Duration : 46mn 53s
Overall bit rate : 1 637 Kbps
Writing application : VirtualDubMod 1.5.10.3 | www.virtualdub-fr.org || (build 2550/release)
Writing library : VirtualDubMod build 2550/release
Video
ID : 0
Format : MPEG-4 Visual
Format profile : Advanced [email protected]
Format settings, BVOP : 2
Format settings, QPel : No
Format settings, GMC : No warppoints
Format settings, Matrix : Default (H.263)
Codec ID : XVID
Codec ID/Hint : XviD
Duration : 46mn 53s
Bit rate : 1 500 Kbps
Width : 720 pixels
Height : 448 pixels
Display aspect ratio : 16:10
Frame rate : 25.000 fps
Color space : YUV
Chroma subsampling : 4:2:0
Bit depth : 8 bits
Scan type : Progressive
Compression mode : Lossy
Bits/(Pixel*Frame) : 0.186
Stream size : 503 MiB (92%)
Writing library : XviD 1.2.1 (UTC 2008-12-04)
Audio
ID : 1
Format : MPEG Audio
Format version : Version 1
Format profile : Layer 3
Codec ID : 55
Codec ID/Hint : MP3
Duration : 46mn 53s
Bit rate mode : Constant
Bit rate : 128 Kbps
Channel(s) : 1 channel
Sampling rate : 48.0 KHz
Compression mode : Lossy
Stream size : 42.9 MiB (8%)
Alignment : Aligned on interleaves
Interleave, duration : 40 ms (1.00 video frame)
Interleave, preload duration : 504 ms
Writing library : LAME3.99r
Encoding settings : -m m -V 4 -q 2 -lowpass 20.5 -b 128
Download / Скачать

Хотите скачать бесплатно? Зарегистрируйтесь на сайте (ссылка на регистрацию). Pirat.ca - самый быстрый торрент трекер в рунете!

Как скачивать  ·   Что такое торрент  ·   Рейтинг и ограничения



Последний раз редактировалось: okorm (2014-05-26 16:55), всего редактировалось 1 раз

kmv01

Гроза морей

Пост 26-Май-2014 16:45 (спустя 10 минут)

[Q] 

да и сейчас, в составе независимой Украины
Фильм точно 2014-го года?
[Профиль]  [ЛС] 

okorm ®

889

Пост 26-Май-2014 16:51 (спустя 5 минут)

[Q] 


Да точно.
[Профиль]  [ЛС] 

Voldemartop

Легенда

1547

Пост 26-Май-2014 22:44 (спустя 5 часов)

[Q] 

Благо Дарю okorm!!!
539520
да и сейчас, в составе независимой Украины
Фильм точно 2014-го года?
Теперь не в составе!!!
Автору респект!!! +

_________________


МОИ РАЗДАЧИ
[Профиль]  [ЛС] 

lightning_01

Шкипер

13

Пост 22-Июн-2014 18:37 (спустя 26 дней)

[Q] 

Крым - часть Украины, как бы кто не хотел.

_________________
[Профиль]  [ЛС] 
Показать сообщения:    
Ответить на тему

Текущее время: Сегодня 00:27

Часовой пояс: GMT + 4



Вы не можете начинать темы
Вы не можете отвечать на сообщения
Вы не можете редактировать свои сообщения
Вы не можете удалять свои сообщения
Вы не можете голосовать в опросах
Вы не можете прикреплять файлы к сообщениям
Вы не можете скачивать файлы

▼ Вниз