ML
     
  Уважаемый Гость!
Вы можете поддержать проект и зарегистрироваться у наших партнеров - онлайн-стратегия MyLands. При регистрации в игре Вы получите код, который сможете активировать после регистрации на pirat.ca и получить 1000 дублонов.

Ваш код:
11f49771fdf057c9d51610e4a0925c3b46ddb655
 
     

Специальный репортаж - Украина. За красной чертой / (Александр Горяинов) [2014 г., документальный, специальный репортаж]

Ответить на тему
 
Автор
Сообщение

Пост 26-Май-2014 21:52

[Q] 

okorm

-Специальный репортаж - Украина. За красной чертой-- Производство: Россия
Жанр: документальный, специальный репортаж
Дата выпуска: 22.05.2014 г.
Продолжительность: 00:25:57
Перевод: Не требуется
Оригинальный аудиопоток: русский
Режиссер: Александр Горяинов-Описание: 11 мая в Луганской и Донецкой областях Украины состоялся референдум о дальнейшей судьбе региона. 25 мая на Украине должны пройти президентские выборы. Страна расколота. Специальный репортаж о ситуации, возникшей на Украине.-Качество видео: SATRip
Контейнер: AVI
Видео кодек: XviD
Аудио кодек: MP3
Видео: XviD, 1397 Кбит/с, 704x400, 25,000 кадров/сек
Аудио: MP3, 2 ch, 128 Кбит/с, 48,0 КГц
Cубтитры: отсутствуют
General
Format : AVI
Format/Info : Audio Video Interleave
File size : 285 MiB
Duration : 25mn 57s
Overall bit rate : 1 534 Kbps
Writing application : VirtualDubMod 1.5.10.3 | www.virtualdub-fr.org || (build 2550/release)
Writing library : VirtualDubMod build 2550/release
Video #0
ID : 0
Format : MPEG-4 Visual
Format profile : Advanced [email protected]
Format settings, BVOP : 2
Format settings, QPel : No
Format settings, GMC : No warppoints
Format settings, Matrix : Default (MPEG)
Codec ID : XVID
Codec ID/Hint : XviD
Duration : 25mn 57s
Bit rate : 1 397 Kbps
Width : 704 pixels
Height : 400 pixels
Display aspect ratio : 16:9
Frame rate : 25.000 fps
Color space : YUV
Chroma subsampling : 4:2:0
Bit depth : 8 bits
Scan type : Progressive
Compression mode : Lossy
Bits/(Pixel*Frame) : 0.198
Stream size : 259 MiB (91%)
Writing library : XviD 1.2.1 (UTC 2008-12-04)
Audio #1
ID : 1
Format : MPEG Audio
Format version : Version 1
Format profile : Layer 3
Codec ID : 55
Codec ID/Hint : MP3
Duration : 25mn 57s
Bit rate mode : Constant
Bit rate : 128 Kbps
Channel count : 2 channels
Sampling rate : 48.0 KHz
Compression mode : Lossy
Stream size : 23.8 MiB (8%)
Alignment : Aligned on interleaves
Interleave, duration : 40 ms (1.00 video frame)
Interleave, preload duration : 504 ms
Writing library : LAME3.99r
Encoding settings : -m s -V 4 -q 2 -lowpass 17 -b 128
Download / Скачать

Хотите скачать бесплатно? Зарегистрируйтесь на сайте (ссылка на регистрацию). Pirat.ca - самый быстрый торрент трекер в рунете!

Как скачивать  ·   Что такое торрент  ·   Рейтинг и ограничения

Показать сообщения:    
Ответить на тему

Текущее время: Сегодня 03:13

Часовой пояс: GMT + 4



Вы не можете начинать темы
Вы не можете отвечать на сообщения
Вы не можете редактировать свои сообщения
Вы не можете удалять свои сообщения
Вы не можете голосовать в опросах
Вы не можете прикреплять файлы к сообщениям
Вы не можете скачивать файлы

▼ Вниз