ML
     
  Уважаемый Гость!
Вы можете поддержать проект и зарегистрироваться у наших партнеров - онлайн-стратегия MyLands. При регистрации в игре Вы получите код, который сможете активировать после регистрации на pirat.ca и получить 1000 дублонов.

Ваш код:
0fcd44bd35319f69313aa6e53b31c51cbff1c942
 
     

Специальный репортаж - Украина. Братская кровь / (Андрей Сергеев) [2014 г., документальный, специальный репортаж]

Ответить на тему
 
Автор
Сообщение

Пост 26-Май-2014 22:09

[Q] 

okorm

-Специальный репортаж - Украина. Братская кровь-- Производство: Россия
Жанр: документальный, специальный репортаж
Дата выпуска: 22.04.2014 г.
Продолжительность: 00:26:02
Перевод: Не требуется
Оригинальный аудиопоток: русский
Режиссер: Андрей Сергеев-Описание: На юго-востоке Украины началась так называемая "антитеррористическая операция", как называют её самопровозглашённые власти в Киеве. Войскам противостоит народное ополчение, единственной целью которого было проведение референдума, но теперь на повестке дня и другой вопрос: как защитить свой дом...-Качество видео: SATRip
Контейнер: AVI
Видео кодек: XviD
Аудио кодек: MP3
Видео: XviD, 1495 Кбит/с, 704x400
Аудио: MP3, 2 ch, 128 Кбит/с
Cубтитры: отсутствуют
Format : AVI
Format/Info : Audio Video Interleave
File size : 304 MiB
Duration : 26mn 2s
Overall bit rate : 1 633 Kbps
Writing application : VirtualDubMod 1.5.10.3 | www.virtualdub-fr.org || (build 2550/release)
Writing library : VirtualDubMod build 2550/release
Video
ID : 0
Format : MPEG-4 Visual
Format profile : Advanced [email protected]
Format settings, BVOP : 2
Format settings, QPel : No
Format settings, GMC : No warppoints
Format settings, Matrix : Default (MPEG)
Codec ID : XVID
Codec ID/Hint : XviD
Duration : 26mn 2s
Bit rate : 1 495 Kbps
Width : 704 pixels
Height : 400 pixels
Display aspect ratio : 16:9
Frame rate : 25.000 fps
Color space : YUV
Chroma subsampling : 4:2:0
Bit depth : 8 bits
Scan type : Progressive
Compression mode : Lossy
Bits/(Pixel*Frame) : 0.212
Stream size : 278 MiB (92%)
Writing library : XviD 1.2.1 (UTC 2008-12-04)
Audio
ID : 1
Format : MPEG Audio
Format version : Version 1
Format profile : Layer 3
Codec ID : 55
Codec ID/Hint : MP3
Duration : 26mn 2s
Bit rate mode : Constant
Bit rate : 128 Kbps
Channel(s) : 2 channels
Sampling rate : 48.0 KHz
Compression mode : Lossy
Stream size : 23.8 MiB (8%)
Alignment : Aligned on interleaves
Interleave, duration : 40 ms (1.00 video frame)
Interleave, preload duration : 504 ms
Writing library : LAME3.99r
Encoding settings : -m s -V 4 -q 2 -lowpass 17 -b 128
Download / Скачать

Хотите скачать бесплатно? Зарегистрируйтесь на сайте (ссылка на регистрацию). Pirat.ca - самый быстрый торрент трекер в рунете!

Как скачивать  ·   Что такое торрент  ·   Рейтинг и ограничения



Последний раз редактировалось: okorm (2014-05-27 13:02), всего редактировалось 1 раз

Tapac84

Корсар

Пост 27-Май-2014 02:27 (спустя 4 часа)

[Q] 

ну вас там в Росії накачують "инфою"...
[Профиль]  [ЛС] 

AnastasWolf

3476

Пост 27-Май-2014 03:11 (спустя 44 минуты)

[Q] 

Tapac84,
Радио "Эхо Москвы", "Особое мнение" эфир 03.10.2013
"В.Шендерович:... история у нас на задворках, поскольку… Мы когда-то в советское время имели наглость ужасаться – историки! – романами Пикуля и говорить, что это не имеет никакого отношения…, что это чистая беллетристика, что нельзя представлять исторические процессы…, учить историю по романам Пикуля! Так это Пикуль только. А потом Радзинский, а потом Мединский вообще! И вот теперь история – это то, что Мединский написал. То есть, это уже, вообще, бред просто откровенный. Ну, это натянутый просто пиджак - не того размера, не на те плечи. История, конечно, есть - и историки есть, но они в маргинальном статусе по сравнению с трактователями-политиками, с этой самой «политикой, опрокинутой в прошлое». В этом смысле, комическая, анекдотическая история с картиной Репина только напоминает нам степень нашей шизофрении. Мы не знаем собственной истории, причем, повторяю: не то, что не знаем…. – немцы тоже, наверное, не все знают – но тут это государственная политика: держать в мифах! Поэтому мы можем спорить до сих пор о Сталине, о Катыни, - потому что, собственно говоря, где архивы открытые? где разговоры об этом гласные, публичные? Этого нет, вместо этого – от мифа до мифа: что вспыхнет, что всколыхнется у сегодняшнего начальства? Чё изволите? Вот, сейчас перепишем снова учебник истории...
...«Я знаю силу слов», - говорил Маяковский. Часто повторенная ложь, долго и настойчиво повторяемая ложь…, - потом это Геббельс, после Маяковского (сформулировал), - она становится «правдой»!..
...Если населению рассказали жуткие страшилки про Гринпис – то же НТВ…

Т.Фельгенгауэр – Но, ВЦИОМ посчитал.
В.Шендерович: – Совершенно верно, но сначала тебе закачали в голову дерьмо, а потом из этой головы взяли на анализ и сказали: «дерьмо». Ну, отлично! Значит, сами рассказали населению про это, а потом спросили у населения: что ты думаешь? А «многие люди подобны колбасам, - как говорил Козьма Прутков, - чем их начинят, то в себе и носят». Вот, их и начинили, они это в себе носят, а потом ВЦИОМ глубокомысленно берет оттуда анализ. Братцы, так вы дайте посмотреть россиянам фильм Гринпис о «Газпроме» симметричным образом, часовой, дайте такую возможность, чтобы они поровну получили информацию. «Газпром» (НТВ) рассказывает про Гринпис, а Гринпис рассказывает про «Газпром»..."
Там ещё 93-й год обсуждался... Полный текст статьи может найти любой заинтересовавшийся.

_________________


Последний раз редактировалось: AnastasWolf (2014-05-27 11:41), всего редактировалось 2 раз(а)
[Профиль]  [ЛС] 

Alien2000

Легенда

Пост 27-Май-2014 18:58 (спустя 15 часов)

[Q] 

Tapac84, обратите внимание - весь этот "сериал" чернушных документальных фильмов выкладывает один и тот же человек. Видимо денюжку отрабатывает фсбшную. Впрочем кто знает... может быть унего это идеологическое и очень личное, бывет и такое... af
[Профиль]  [ЛС] 

AnastasWolf

3476

Пост 28-Май-2014 03:33 (спустя 8 часов)

[Q] 

Alien2000, да, в России очень много таких идеологов-конформистов.
Любопытно, что 2 дня никто другой в этот трюм ничего не выкладывает.
anime76

_________________
[Профиль]  [ЛС] 
Показать сообщения:    
Ответить на тему

Текущее время: Сегодня 02:08

Часовой пояс: GMT + 4



Вы не можете начинать темы
Вы не можете отвечать на сообщения
Вы не можете редактировать свои сообщения
Вы не можете удалять свои сообщения
Вы не можете голосовать в опросах
Вы не можете прикреплять файлы к сообщениям
Вы не можете скачивать файлы

▼ Вниз