ML
     
  Уважаемый Гость!
Вы можете поддержать проект и зарегистрироваться у наших партнеров - онлайн-стратегия MyLands. При регистрации в игре Вы получите код, который сможете активировать после регистрации на pirat.ca и получить 1000 дублонов.

Ваш код:
0af2e2107bc9b5dd5ac2c09f9fc25e1a77c43887
 
     

Специальный репортаж. Украина. Синдром Майдана / (Владимир Батраков) [2014 г., документальный, специальный репортаж]

Ответить на тему
 
Автор
Сообщение

Пост 27-Май-2014 07:39

[Q] 

okorm

-Специальный репортаж. Украина. Синдром Майдана-- Производство: Россия
Жанр: документальный, специальный репортаж
Дата выпуска: 03.02.2014 г.
Продолжительность: 00:25:36
Перевод: Не требуется
Оригинальный аудиопоток: русский
Режиссер: Владимир Батраков-Описание: 19 января 2014 года в Киеве с новой силой вспыхнули беспорядки после очередного вече, созванного сторонниками евроинтеграции Украины. В специальном репортаже рассказывается о событиях последних дней в Киеве. С помощью экспертов авторская группа постарается раскрыть причины происходящего и понять, какие силы стоят за попыткой резкого обострения ситуации.-Качество видео: SATRip
Контейнер: AVI
Видео кодек: XviD
Аудио кодек: MP3
Видео: XviD, 1493 Кбит/с, 704х400, 25.000 fps
Аудио: MP3, 2 ch, 128 Кбит/с, 48.0 KHz
Cубтитры: отсутствуют
Format : AVI
Format/Info : Audio Video Interleave
File size : 299 MiB
Duration : 25mn 36s
Overall bit rate : 1 631 Kbps
Writing application : VirtualDubMod 1.5.10.3 | www.virtualdub-fr.org || (build 2550/release)
Writing library : VirtualDubMod build 2550/release
Video
ID : 0
Format : MPEG-4 Visual
Format profile : Advanced [email protected]
Format settings, BVOP : 2
Format settings, QPel : No
Format settings, GMC : No warppoints
Format settings, Matrix : Default (MPEG)
Codec ID : XVID
Codec ID/Hint : XviD
Duration : 25mn 36s
Bit rate : 1 493 Kbps
Width : 704 pixels
Height : 400 pixels
Display aspect ratio : 16:9
Frame rate : 25.000 fps
Color space : YUV
Chroma subsampling : 4:2:0
Bit depth : 8 bits
Scan type : Progressive
Compression mode : Lossy
Bits/(Pixel*Frame) : 0.212
Stream size : 274 MiB (92%)
Writing library : XviD 1.2.1 (UTC 2008-12-04)
Audio
ID : 1
Format : MPEG Audio
Format version : Version 1
Format profile : Layer 3
Codec ID : 55
Codec ID/Hint : MP3
Duration : 25mn 36s
Bit rate mode : Constant
Bit rate : 128 Kbps
Channel(s) : 2 channels
Sampling rate : 48.0 KHz
Compression mode : Lossy
Stream size : 23.4 MiB (8%)
Alignment : Aligned on interleaves
Interleave, duration : 40 ms (1.00 video frame)
Interleave, preload duration : 504 ms
Writing library : LAME3.99r
Encoding settings : -m s -V 4 -q 2 -lowpass 17 -b 128
Download / Скачать

Хотите скачать бесплатно? Зарегистрируйтесь на сайте (ссылка на регистрацию). Pirat.ca - самый быстрый торрент трекер в рунете!

Как скачивать  ·   Что такое торрент  ·   Рейтинг и ограничения

BORT-747

Флибустьер

352

Пост 18-Июл-2014 21:14 (спустя 1 месяц 22 дня)

[Q] 

Рашизм, рашизм, один рашизм!

_________________
[Профиль]  [ЛС] 
Показать сообщения:    
Ответить на тему

Текущее время: Сегодня 00:07

Часовой пояс: GMT + 4



Вы не можете начинать темы
Вы не можете отвечать на сообщения
Вы не можете редактировать свои сообщения
Вы не можете удалять свои сообщения
Вы не можете голосовать в опросах
Вы не можете прикреплять файлы к сообщениям
Вы не можете скачивать файлы

▼ Вниз