ML
     
  Уважаемый Гость!
Вы можете поддержать проект и зарегистрироваться у наших партнеров - онлайн-стратегия MyLands. При регистрации в игре Вы получите код, который сможете активировать после регистрации на pirat.ca и получить 1000 дублонов.

Ваш код:
0ea1bf889af42fca5f67d0a391efb3400850ad7c
 
     

Афганцы / (Алексей Поборцев) [2014 г., документальный]

Ответить на тему
 
Автор
Сообщение

Пост 28-Май-2014 11:27

[Q] 

okorm

-Афганцы-- Производство: Россия
Жанр: документальный
Год выпуска: 2014 г.
Продолжительность: 00:30:37
Перевод: Не требуется
Оригинальный аудиопоток: русский
Режиссер: Алексей Поборцев-Описание: Ровно двадцать пять лет назад последний советский солдат покинул землю Афганистана. Кто этот человек? Как сложилась его судьба? Где он сейчас и что думает о той войне, которая унесла тысячи молодых жизней? Что оказалось трудней – начать ту войну или ее закончить? И все-таки, кто тогда победил? Может, и вовсе не было победителей? Автор фильма Алексей Поборцев встретился с «последним» солдатом, «татуированным войной», как поется в одной из «афганских песен». Он поделился воспоминаниями о том, как совсем еще мальчиком сидел на броне БТРа, сжимая одной рукой автомат Калашникова, а другой крепко держал красное знамя страны, которая вскоре исчезнет. Что ждало людей, прошедших огонь войны в мирной жизни? Кем они стали? И что дал им боевой опыт? В документальном фильме «Афганцы» – судьбы ветеранов афганской войны: от генерала, командовавшего выводом войск, до последнего солдата...-Качество видео: SATRip
Контейнер: AVI
Видео кодек: DivX
Аудио кодек: MP3
Видео: 720x448 (1.61:1), 25 fps, DivX Codec 5.x or 6.x ~1803 kbps avg, 0.22 bit/pixel
Аудио: 48 kHz, MPEG Layer 3, 2 ch, ~128.00 kbps avg
Cубтитры: отсутствуют
Format : AVI
Format/Info : Audio Video Interleave
File size : 425 MiB
Duration : 30mn 37s
Overall bit rate : 1 941 Kbps
Writing application : TMPGEnc Video Mastering Works 5 Version. 5.0.6.38
Writing library : TMPGEnc Video Mastering Works 5 Version. 5.0.6.38
Video
ID : 0
Format : MPEG-4 Visual
Format settings, BVOP : No
Format settings, QPel : No
Format settings, GMC : No warppoints
Format settings, Matrix : Default (H.263)
Codec ID : DX50
Codec ID/Hint : DivX 5
Duration : 30mn 37s
Bit rate : 1 800 Kbps
Width : 720 pixels
Height : 448 pixels
Display aspect ratio : 1.607
Frame rate : 25.000 fps
Color space : YUV
Chroma subsampling : 4:2:0
Bit depth : 8 bits
Scan type : Progressive
Compression mode : Lossy
Bits/(Pixel*Frame) : 0.223
Stream size : 394 MiB (93%)
Writing library : DivX 6.8.5 (UTC 2009-08-20)
Audio
ID : 1
Format : MPEG Audio
Format version : Version 1
Format profile : Layer 3
Mode : Joint stereo
Codec ID : 55
Codec ID/Hint : MP3
Duration : 30mn 37s
Bit rate mode : Constant
Bit rate : 128 Kbps
Channel(s) : 2 channels
Sampling rate : 48.0 KHz
Compression mode : Lossy
Stream size : 28.0 MiB (7%)
Alignment : Aligned on interleaves
Interleave, duration : 40 ms (1.00 video frame)
Interleave, preload duration : 384 ms
Download / Скачать

Хотите скачать бесплатно? Зарегистрируйтесь на сайте (ссылка на регистрацию). Pirat.ca - самый быстрый торрент трекер в рунете!

Как скачивать  ·   Что такое торрент  ·   Рейтинг и ограничения

Показать сообщения:    
Ответить на тему

Текущее время: Сегодня 00:39

Часовой пояс: GMT + 4



Вы не можете начинать темы
Вы не можете отвечать на сообщения
Вы не можете редактировать свои сообщения
Вы не можете удалять свои сообщения
Вы не можете голосовать в опросах
Вы не можете прикреплять файлы к сообщениям
Вы не можете скачивать файлы

▼ Вниз