ML
     
  Уважаемый Гость!
Вы можете поддержать проект и зарегистрироваться у наших партнеров - онлайн-стратегия MyLands. При регистрации в игре Вы получите код, который сможете активировать после регистрации на pirat.ca и получить 1000 дублонов.

Ваш код:
ea554e7ed3eacceeae87a8b30a9de3f086c18a84
 
     

Афган. Фильм Андрея Кондрашова / (Сергей Краус) [2014 г., документальный]

Ответить на тему
 
Автор
Сообщение

Пост 28-Май-2014 11:39

[Q] 

okorm

-Афган. Фильм Андрея Кондрашова-- Производство: Россия
Жанр: документальный
Год выпуска: 2014 г.
Продолжительность: 01:41:37
Перевод: Не требуется
Оригинальный аудиопоток: русский
Режиссер: Сергей Краус-Описание: 25 лет назад, в феврале 1989 года, Советский Союз вывел войска из Афганистана. Закончилась последняя война огромной и еще единой страны. Что это было – провал или победа? Кто все это время оставался в тени военных баталий? Как в Афганистане столкнулись ГРУ и ЦРУ? Кто извлек прибыль из этой войны?
В фильме Андрея Кондрашова впервые открывают тайны те, чьим долгом было молчать. Нелегалы Главного разведуправления, лазутчики афганской спецслужбы ХАД, главари моджахедов, а также главный резидент ЦРУ, отвечавший за все диверсии на той войне. Это он уничтожил господство советской авиации в афганском небе: поставил душманам "Стингеры". Но на чем так неожиданно поскользнулось ЦРУ?
Зрителям предстоит узнать неизвестные подробности знаменитого штурма Дворца Амина. Какую роль в ликвидации президента Афганистана сыграл советский мусульманский батальон? Кто эти герои, шедшие во Дворец под шквалом огня без бронежилетов? Почему афганцы до сих пор в шоке от коварства и хитрости ЭТИХ "русских"?
Много лет наши комбаты не знали, почему моджахедам заранее становилось известно о времени и направлениях масштабных советских атак. Оказывается, у них были информаторы в руководстве Минобороны и даже в ЦК КПСС. Сегодняшний преемник Ахмад-Шаха Масуда впервые называет поименно всех предателей в Москве, из-за которых гибли сотнями наши солдаты в Афганистане.
Противостояние на перевале Саланг. Мы увидим, как наш комбат, желая взять в плен самого матерого душмана, попал на женскую половину афганского дома. Что было потом и почему этого комбата полевые командиры теперь угощают пловом? Невероятная встреча с заклятыми врагами 30 лет спустя.-Качество видео: HDTVRip
Контейнер: AVI
Видео кодек: XviD
Аудио кодек: AC3
Видео: 720x400 (1.80:1), 25 fps, XviD build 73 ~1448 kbps avg, 0.20 bit/pixel
Аудио: 48 kHz, AC3 Dolby Digital, 2/0 (L,R) ch, ~192.00 kbps avg
Cубтитры: отсутствуют
Format : AVI
Format/Info : Audio Video Interleave
File size : 1.17 GiB
Duration : 1h 41mn
Overall bit rate : 1 650 Kbps
Writing application : VirtualDubMod 1.5.10.3 | www.virtualdub-fr.org || (build 2550/release)
Writing library : VirtualDubMod build 2550/release
Video
ID : 0
Format : MPEG-4 Visual
Format profile : Advanced [email protected]
Format settings, BVOP : 1
Format settings, QPel : No
Format settings, GMC : No warppoints
Format settings, Matrix : Default (H.263)
Codec ID : XVID
Codec ID/Hint : XviD
Duration : 1h 41mn
Bit rate : 1 449 Kbps
Width : 720 pixels
Height : 400 pixels
Display aspect ratio : 16:9
Frame rate : 25.000 fps
Color space : YUV
Chroma subsampling : 4:2:0
Bit depth : 8 bits
Scan type : Progressive
Compression mode : Lossy
Bits/(Pixel*Frame) : 0.201
Stream size : 1.03 GiB (88%)
Writing library : XviD 73
Audio
ID : 1
Format : AC-3
Format/Info : Audio Coding 3
Mode extension : CM (complete main)
Codec ID : 2000
Duration : 1h 41mn
Bit rate mode : Constant
Bit rate : 192 Kbps
Channel(s) : 2 channels
Channel positions : Front: L R
Sampling rate : 48.0 KHz
Bit depth : 16 bits
Compression mode : Lossy
Stream size : 140 MiB (12%)
Alignment : Split accross interleaves
Interleave, duration : 40 ms (1.00 video frame)
Interleave, preload duration : 500 ms
Download / Скачать

Хотите скачать бесплатно? Зарегистрируйтесь на сайте (ссылка на регистрацию). Pirat.ca - самый быстрый торрент трекер в рунете!

Как скачивать  ·   Что такое торрент  ·   Рейтинг и ограничения

vtripe

Корсар

35

Пост 09-Окт-2014 21:45 (спустя 4 месяца 12 дней)

[Q] 

Спасибо автору раздачи за труд
[Профиль]  [ЛС] 
Показать сообщения:    
Ответить на тему

Текущее время: Сегодня 12:08

Часовой пояс: GMT + 4



Вы не можете начинать темы
Вы не можете отвечать на сообщения
Вы не можете редактировать свои сообщения
Вы не можете удалять свои сообщения
Вы не можете голосовать в опросах
Вы не можете прикреплять файлы к сообщениям
Вы не можете скачивать файлы

▼ Вниз