ML
     
  Уважаемый Гость!
Вы можете поддержать проект и зарегистрироваться у наших партнеров - онлайн-стратегия MyLands. При регистрации в игре Вы получите код, который сможете активировать после регистрации на pirat.ca и получить 1000 дублонов.

Ваш код:
a6d1ef7ff63e237add5a4c8b21d8aa937c5e9b4b
 
     

Гудбай, Америка! / (Галина Царёва) [2014 г., документальный, познавательный]

Ответить на тему
 
Автор
Сообщение

Пост 28-Май-2014 11:48

[Q] 

okorm

-Гудбай, Америка!-- Производство: Россия
Жанр: документальный, познавательный
Год выпуска: 2014 г.
Продолжительность: 02:56:43
Перевод: Не требуется
Оригинальный аудиопоток: русский
Режиссер: Галина Царёва-Описание: Многие думают, что Америка - это рай, где реализуются все заветные мечты человека. Как на самом деле обстоят дела в здравоохранении, экономике, образовании, культуре и просто в частной жизни людей? С чем приходится сталкиваться в жизни рядовому обывателю и что кажется странным или совсем неприемлемым для русского человека.
Об этом и многом другом рассказывает Николай Перелетов, который прожил в США 19 лет, но так и не обретя вторую родину, вернулся в Россию.-Качество видео: DVDRip
Контейнер: AVI
Видео кодек: XviD
Аудио кодек: MP3
Видео: 1000 Кбит/сек, 688*528 (4:3), в 25,000 кадров/сек, XviD
Аудио: Русский, 128 Кбит/сек, 48,0 КГц, 2 канала, MPEG Audio (MP3)
Cубтитры: отсутствуют
Формат : AVI
Формат/Информация : Audio Video Interleave
Размер файла : 1,41 Гбайт
Продолжительность : 2 ч. 56 м.
Общий поток : 1141 Кбит/сек
Видео
Идентификатор : 0
Формат : MPEG-4 Visual
Профиль формата : Advanced [email protected]
Параметр BVOP формата : 2
Параметр QPel формата : Нет
Параметр GMC формата : Без точки перехода
Параметр матрицы формата : Выборочная
Идентификатор кодека : XVID
Идентификатор кодека/Подсказка : XviD
Продолжительность : 2 ч. 56 м.
Битрейт : 1000 Кбит/сек
Ширина : 688 пикселей
Высота : 528 пикселей
Соотношение сторон : 4:3
Частота кадров : 25,000 кадров/сек
Цветовое пространство : YUV
Субдискретизация насыщенности : 4:2:0
Битовая глубина : 8 бит
Тип развёртки : Прогрессивная
Метод сжатия : С потерями
Бит/(Пиксели*Кадры) : 0.110
Размер потока : 1,23 Гбайт (88%)
Библиотека кодирования : XviD 1.2.1 (UTC 2008-12-04)
Аудио
Идентификатор : 1
Формат : MPEG Audio
Версия формата : Version 1
Профиль формата : Layer 3
Идентификатор кодека : 55
Идентификатор кодека/Подсказка : MP3
Продолжительность : 2 ч. 56 м.
Продолжительность оригинала : 2 ч. 56 м.
Вид битрейта : Постоянный
Битрейт : 128 Кбит/сек
Каналы : 2 канала
Частота : 48,0 КГц
Метод сжатия : С потерями
Размер потока : 162 Мбайт (11%)
Выравнивание : Разделение по промежуткам
Продолжительность промежутка : 24 мс. (0,60 видеокадр)
Библиотека кодирования : LAME3.98.2o
Download / Скачать

Хотите скачать бесплатно? Зарегистрируйтесь на сайте (ссылка на регистрацию). Pirat.ca - самый быстрый торрент трекер в рунете!

Как скачивать  ·   Что такое торрент  ·   Рейтинг и ограничения

LPPI

137529

Пост 28-Май-2014 12:05 (спустя 16 минут)

[Q] 

Многие думают, что Америка - это рай bj
[Профиль]  [ЛС] 

kmv01

Гроза морей

Пост 28-Май-2014 12:08 (спустя 3 минуты)

[Q] 

Ну да, в Америке всё по-другому: другая культура, другое мышление, другой образ жизни...
[Профиль]  [ЛС] 

JIuI3epIIyJIb

Морской Волк

230

Пост 28-Май-2014 13:55 (спустя 1 час 46 минут)

[Q] 

540319Многие думают, что Америка - это рай bj
глупцы не понимают, что если есть на свете рай, то это Крым)
[Профиль]  [ЛС] 

igorexa1111

Корсар

Пост 28-Май-2014 16:02 (спустя 2 часа 7 минут)

[Q] 

кирдык скоро твоей Америке!(Сергей Бодров из культового фильма Брат-2)
и это верно Зуб даю...
[Профиль]  [ЛС] 

-B1ack-

1884

Пост 29-Май-2014 19:22 (спустя 1 день 3 часа)

[Q] 

внимательно посмотрел и послушал Спасибо!!! Лови бочку

_________________
[Профиль]  [ЛС] 
Показать сообщения:    
Ответить на тему

Текущее время: Сегодня 13:33

Часовой пояс: GMT + 4



Вы не можете начинать темы
Вы не можете отвечать на сообщения
Вы не можете редактировать свои сообщения
Вы не можете удалять свои сообщения
Вы не можете голосовать в опросах
Вы не можете прикреплять файлы к сообщениям
Вы не можете скачивать файлы

▼ Вниз