ML
     
  Уважаемый Гость!
Вы можете поддержать проект и зарегистрироваться у наших партнеров - онлайн-стратегия MyLands. При регистрации в игре Вы получите код, который сможете активировать после регистрации на pirat.ca и получить 1000 дублонов.

Ваш код:
9cfe162481db953a6549f32179d7b3900b8b8643
 
     

Небесный щит / (Дмитрий Барин) [2014 г., документальный]

Ответить на тему
 
Автор
Сообщение

Пост 28-Май-2014 12:01

[Q] 

okorm

-Небесный щит-- Производство: Россия
Жанр: документальный
Год выпуска: 2014 г.
Продолжительность: 00:44:02
Перевод: Не требуется
Оригинальный аудиопоток: русский
Режиссер: Дмитрий Барин-Описание: В мире, где ядерное оружие - все еще главный аргумент, где амбиции некоторых политиков сильнее, чем голос разума, очень важно иметь надежный щит. Как работает "Небесный щит" России? Кто стоит на страже наших космических границ? И куда нацелены российские противоракеты? Об этом, а так же об истории создания российской системы ПРО, о сложной и порой трагичной судьбе наших радиолокационных станций – в фильме "Небесный щит". "Хочешь мира – готовься к войне". Эта фраза, которую приписывают древнеримскому философу Корнелию Непоту, стала эталоном для военных еще до нашей эры. Реализация этого постулата обеспечивала независимость государствам на протяжении тысячелетий и помогала надолго сохранять мир между ними. Сегодня отличительные признаки сильной державы – ядерное оружие и мощная противоракетная оборона. В России основной модуль предупреждения о нападении – радиолокационные станции. Русская система ПРО – это эффективные, отлаженные космические и компьютерные технологии на земле, воде, под водой и в пространстве. Развитие системы ПРО – важнейшая задача модернизации всего оборонного комплекса России. Военно-космические технологии – в зоне особого внимания Президента России и руководителей государства. Сделанный в динамичной форме специального репортажа, документальный фильм "Небесный щит" на основе съемок на новой РЛС в Армавире и в одном из подразделений ПВО под Москвой детально и подробно показывает всю технологическую цепочку действий военных – от обнаружения ракеты противника до ее ликвидации. Фильм, используя современные формы киноязыка, доказывает, что сегодня небесный щит России прочен как никогда. И способен обеспечить независимость нашего государства вопреки всем тайным и явным угрозам возможных противников.-Качество видео: SATRip
Контейнер: AVI
Видео кодек: DivX
Аудио кодек: MP3
Видео: DivX, 720x400, (1.8:1), 1799 kbps avg, 25 fps, 0.25 bit/pixel
Аудио: 48 kHz, MPEG Audio Layer 3, 2 ch, ~128.00 kbps avg
Cубтитры: отсутствуют
Format : AVI
Format/Info : Audio Video Interleave
File size : 630 MiB
Duration : 44mn 1s
Overall bit rate : 2 001 Kbps
Video
ID : 0
Format : MPEG-4 Visual
Format settings, BVOP : 1
Format settings, QPel : No
Format settings, GMC : No warppoints
Format settings, Matrix : Default (H.263)
Codec ID : DX50
Codec ID/Hint : DivX 5
Duration : 44mn 1s
Bit rate : 1 799 Kbps
Width : 720 pixels
Height : 400 pixels
Display aspect ratio : 16:9
Frame rate : 25.000 fps
Color space : YUV
Chroma subsampling : 4:2:0
Bit depth : 8 bits
Scan type : Progressive
Compression mode : Lossy
Bits/(Pixel*Frame) : 0.250
Stream size : 567 MiB (90%)
Writing library : DivX 6.8.5 (UTC 2009-08-20)
Audio
ID : 1
Format : MPEG Audio
Format version : Version 1
Format profile : Layer 3
Mode : Joint stereo
Mode extension : MS Stereo
Codec ID : 55
Codec ID/Hint : MP3
Duration : 44mn 1s
Bit rate mode : Constant
Bit rate : 192 Kbps
Channel(s) : 2 channels
Sampling rate : 48.0 KHz
Compression mode : Lossy
Stream size : 60.5 MiB (10%)
Alignment : Split accross interleaves
Interleave, duration : 40 ms (1.00 video frame)
Interleave, preload duration : 500 ms
Download / Скачать

Хотите скачать бесплатно? Зарегистрируйтесь на сайте (ссылка на регистрацию). Pirat.ca - самый быстрый торрент трекер в рунете!

Как скачивать  ·   Что такое торрент  ·   Рейтинг и ограничения

papanj

Легенда

Пост 28-Май-2014 19:17 (спустя 7 часов)

[Q] 

В своё время хотел посмотреть, большое СПАСИБО!!!
Раздающему респект! Супер!

_________________
"Не понимаю, зачем думать все время о других..." - "Тебе этого не понять, потому что ты не король..."
Я.Корчак. Король Матиуш Первый
[Профиль]  [ЛС] 
Показать сообщения:    
Ответить на тему

Текущее время: Сегодня 06:00

Часовой пояс: GMT + 4



Вы не можете начинать темы
Вы не можете отвечать на сообщения
Вы не можете редактировать свои сообщения
Вы не можете удалять свои сообщения
Вы не можете голосовать в опросах
Вы не можете прикреплять файлы к сообщениям
Вы не можете скачивать файлы

▼ Вниз