ML
     
  Уважаемый Гость!
Вы можете поддержать проект и зарегистрироваться у наших партнеров - онлайн-стратегия MyLands. При регистрации в игре Вы получите код, который сможете активировать после регистрации на pirat.ca и получить 1000 дублонов.

Ваш код:
ea554e7ed3eacceeae87a8b30a9de3f086c18a84
 
     

Смертельная пыль / (Александр Замыслов) [2014 г., документальный]

Ответить на тему
 
Автор
Сообщение

Пост 28-Май-2014 12:38

[Q] 

okorm

-Смертельная пыль-- Производство: Россия
Жанр: документальный
Год выпуска: 2014 г.
Продолжительность: 00:49:45
Перевод: Не требуется
Оригинальный аудиопоток: русский
Режиссер: Александр Замыслов-Описание: Страшные последствия применения снарядов с обедненным ураном. Этот материал трудно назвать фильмом, это больше похоже на отснятое на пленку обвинительное заключение. Показания жертв, съемки с мест преступлений, анализ мотивов, рассказы очевидцев и результаты многочисленных экспертиз. В основу фильма легли исследования, начатые профессором Сигвардом Хорстом Гюнтером, которые касались применения в военных конфликтах снарядов с обедненным ураном. Раковые опухоли, мутации, врожденные дефекты – Гюнтер был уверен, что все это связано с "серебряными пулями", использовавшимися США и их союзниками по НАТО. Эти исследования, казалось, были обречены стать мировой сенсацией, перевернуть представление людей о современной войне и способах ее ведения...-Качество видео: HDTVRip
Контейнер: AVI
Видео кодек: XviD
Аудио кодек: AC3
Видео: XviD, 720x400, (1.8:1), 1600 kbps avg, 25 fps, 0.22 bit/pixel
Аудио: 48 kHz, Audio Coding 3, 2 ch, ~192.00 kbps avg
Cубтитры: отсутствуют
Format : AVI
Format/Info : Audio Video Interleave
File size : 641 MiB
Duration : 49mn 45s
Overall bit rate : 1 802 Kbps
Writing application : VirtualDubMod 1.5.10.3 | www.virtualdub-fr.org || (build 2550/release)
Writing library : VirtualDubMod build 2550/release
Video
ID : 0
Format : MPEG-4 Visual
Format profile : Advanced [email protected]
Format settings, BVOP : 2
Format settings, QPel : No
Format settings, GMC : No warppoints
Format settings, Matrix : Default (MPEG)
Codec ID : XVID
Codec ID/Hint : XviD
Duration : 49mn 45s
Bit rate : 1 600 Kbps
Width : 720 pixels
Height : 400 pixels
Display aspect ratio : 16:9
Frame rate : 25.000 fps
Color space : YUV
Chroma subsampling : 4:2:0
Bit depth : 8 bits
Scan type : Progressive
Compression mode : Lossy
Bits/(Pixel*Frame) : 0.222
Stream size : 569 MiB (89%)
Writing library : XviD 1.2.1 (UTC 2008-12-04)
Audio
ID : 1
Format : AC-3
Format/Info : Audio Coding 3
Mode extension : CM (complete main)
Format settings, Endianness : Big
Codec ID : 2000
Duration : 49mn 45s
Bit rate mode : Constant
Bit rate : 192 Kbps
Channel(s) : 2 channels
Channel positions : Front: L R
Sampling rate : 48.0 KHz
Bit depth : 16 bits
Compression mode : Lossy
Stream size : 68.3 MiB (11%)
Alignment : Split accross interleaves
Interleave, duration : 40 ms (1.00 video frame)
Interleave, preload duration : 500 ms
Download / Скачать

Хотите скачать бесплатно? Зарегистрируйтесь на сайте (ссылка на регистрацию). Pirat.ca - самый быстрый торрент трекер в рунете!

Как скачивать  ·   Что такое торрент  ·   Рейтинг и ограничения

Показать сообщения:    
Ответить на тему

Текущее время: Сегодня 12:12

Часовой пояс: GMT + 4



Вы не можете начинать темы
Вы не можете отвечать на сообщения
Вы не можете редактировать свои сообщения
Вы не можете удалять свои сообщения
Вы не можете голосовать в опросах
Вы не можете прикреплять файлы к сообщениям
Вы не можете скачивать файлы

▼ Вниз