ML
     
  Уважаемый Гость!
Вы можете поддержать проект и зарегистрироваться у наших партнеров - онлайн-стратегия MyLands. При регистрации в игре Вы получите код, который сможете активировать после регистрации на pirat.ca и получить 1000 дублонов.

Ваш код:
0fcd44bd35319f69313aa6e53b31c51cbff1c942
 
     

Кто первый? Хроники научного плагиата / (Александр Евсюков) [2014 г., документальный]

Ответить на тему
 
Автор
Сообщение

Пост 28-Май-2014 15:19

[Q] 

okorm

-Кто первый? Хроники научного плагиата-- Производство: Россия
Жанр: документальный
Год выпуска: 2014 г.
Продолжительность: 00:44:00
Перевод: Не требуется
Оригинальный аудиопоток: русский
Режиссер: Александр Евсюков-Описание: Почему мы так легко готовы поверить, что все передовое, что есть в нашей жизни, изобретено где-то за рубежом? Мы включаем свет, телевизор, отвечаем на звонок по мобильному, ни разу не вспомнив изобретателя вольфрамовой нити Лодыгина, первооткрывателя телевидения Бориса Розинга, создателя беспроводного телефона Леонида Куприяновича. А обилие иностранных торговых марок вокруг заставляет жить в плену иллюзии, что все достижения прогресса – от заграничных гениев, и нет пророка в своем отечестве…
Согласиться с этим сегодня – все равно, что самому зачеркнуть свое будущее. И потому никогда не переведутся пытливые умы, готовые – в поисках справедливости или просто из любопытства – неустанно искать ответ на вопрос "Кто первый?"
Почему в принципе возникают подобные споры? Какие интриги и тайные силы скрываются за правом ответить "Я" на вопрос – "Кто первый?"-Качество видео: SATRip
Контейнер: AVI
Видео кодек: XviD
Аудио кодек: MP3
Видео: 720x400 (1.80:1), 25 fps, XviD build 50 ~1499 kbps avg, 0.21 bit/pixel
Аудио: 48 kHz, MPEG Layer 3, 2 ch, ~128.00 kbps avg
Cубтитры: отсутствуют
Format : AVI
Format/Info : Audio Video Interleave
File size : 515 MiB
Duration : 44mn 0s
Overall bit rate : 1 637 Kbps
Writing application : VirtualDubMod 1.5.10.3 | www.virtualdub-fr.org || (build 2550/release)
Writing library : VirtualDubMod build 2550/release
Video #0
ID : 0
Format : MPEG-4 Visual
Format profile : Advanced [email protected]
Format settings, BVOP : 2
Format settings, QPel : No
Format settings, GMC : No warppoints
Format settings, Matrix : Default (H.263)
Codec ID : XVID
Codec ID/Hint : XviD
Duration : 44mn 0s
Bit rate : 1 500 Kbps
Width : 720 pixels
Height : 400 pixels
Display aspect ratio : 16:9
Frame rate : 25.000 fps
Color space : YUV
Chroma subsampling : 4:2:0
Bit depth : 8 bits
Scan type : Progressive
Compression mode : Lossy
Bits/(Pixel*Frame) : 0.208
Stream size : 472 MiB (92%)
Writing library : XviD 1.2.1 (UTC 2008-12-04)
Audio #1
ID : 1
Format : MPEG Audio
Format version : Version 1
Format profile : Layer 3
Mode : Joint stereo
Mode extension : MS Stereo
Codec ID : 55
Codec ID/Hint : MP3
Duration : 44mn 0s
Bit rate mode : Constant
Bit rate : 128 Kbps
Channel count : 2 channels
Sampling rate : 48.0 KHz
Compression mode : Lossy
Stream size : 40.3 MiB (8%)
Alignment : Aligned on interleaves
Interleave, duration : 40 ms (1.00 video frame)
Interleave, preload duration : 504 ms
Writing library : LAME3.99r
Encoding settings : -m j -V 4 -q 9 -lowpass 17 -b 128
Download / Скачать

Хотите скачать бесплатно? Зарегистрируйтесь на сайте (ссылка на регистрацию). Pirat.ca - самый быстрый торрент трекер в рунете!

Как скачивать  ·   Что такое торрент  ·   Рейтинг и ограничения

Дядя Витя

53908

Пост 28-Май-2014 15:50 (спустя 31 минута)

[Q] 


_________________
?
[Профиль]  [ЛС] 
Показать сообщения:    
Ответить на тему

Текущее время: Сегодня 02:10

Часовой пояс: GMT + 4



Вы не можете начинать темы
Вы не можете отвечать на сообщения
Вы не можете редактировать свои сообщения
Вы не можете удалять свои сообщения
Вы не можете голосовать в опросах
Вы не можете прикреплять файлы к сообщениям
Вы не можете скачивать файлы

▼ Вниз