ML
     
  Уважаемый Гость!
Вы можете поддержать проект и зарегистрироваться у наших партнеров - онлайн-стратегия MyLands. При регистрации в игре Вы получите код, который сможете активировать после регистрации на pirat.ca и получить 1000 дублонов.

Ваш код:
ea554e7ed3eacceeae87a8b30a9de3f086c18a84
 
     

Тихая война.Битва за океан / The Silent War / (ВВС) [2014 г., документальный]

Ответить на тему
 
Автор
Сообщение

Пост 28-Май-2014 15:58

[Q] 

okorm

-Тихая война.Битва за океан / The Silent War-- Производство: Великобритания
Жанр: документальный
Год выпуска: 2014 г.
Продолжительность: 00:52:00
Перевод: (одноголосый, закадровый)
Режиссер: ВВС-Описание: В течение десятилетий, подводные лодки Британии и Америки, вели шпионскую войну против, развивающегося и устрашающего по своим масштабам Советского Военно-морского флота. Глубоко в море, экипажи играли в "кошки-мышки",по лучшим канонам холодной войны. Каждая из сторон старалась добыть, как можно больше информации, чтобы получить значимые тактические и технологические преимущества при возможном военном конфликте-Качество видео: DVB
Контейнер: TS/M2TS
Видео кодек: AVC
Аудио кодек: MP3
Видео: AVC, аноморф. 720х576, 4:3, 1110 Кбит/сек, 25 fps
Аудио: MPEG Audio, 192 Кбит/сек, 48 КГц, 2 канала
Cубтитры: отсутствуют
Общее
Идентификатор : 16 (0x10)
Полное имя : Silent War_SD.ts
Формат : MPEG-TS
Размер файла : 512 Мбайт
Продолжительность : 52 м.
Режим общего битрейта : Переменный
Общий поток : 1371 Кбит/сек
Видео
Идентификатор : 1226 (0x4CA)
Идентификатор меню : 226 (0xE2)
Формат : AVC
Формат/Информация : Advanced Video Codec
Профиль формата : [email protected]
Параметр CABAC формата : Да
Параметр ReFrames формата : 3 кадра
Параметр GOP формата : M=4, N=28
Идентификатор кодека : 27
Продолжительность : 52 м.
Битрейт : 1110 Кбит/сек
Ширина : 720 пикселей
Высота : 576 пикселей
Соотношение сторон : 4:3
Частота кадров : 25,000 кадров/сек
Стандарт вещания : PAL
Цветовое пространство : YUV
Субдискретизация насыщенности : 4:2:0
Битовая глубина : 8 бит
Тип развёртки : Чересстрочная
Порядок развёртки : Верхнее поле первое
Бит/(Пиксели*Кадры) : 0.107
Размер потока : 414 Мбайт (81%)
Основные цвета : BT.601 PAL
Характеристики трансфера : BT.470 System B, BT.470 System G
Коэффициенты матрицы : BT.601
Аудио
Идентификатор : 2226 (0x8B2)
Идентификатор меню : 226 (0xE2)
Формат : MPEG Audio
Версия формата : Version 1
Профиль формата : Layer 2
Идентификатор кодека : 4
Продолжительность : 52 м.
Вид битрейта : Постоянный
Битрейт : 192 Кбит/сек
Каналы : 2 канала
Частота : 48,0 КГц
Метод сжатия : С потерями
Задержка видео : 101 мс.
Размер потока : 71,7 Мбайт (14%)
Язык : std
Язык, дополнительно : Clean effects
Download / Скачать

Хотите скачать бесплатно? Зарегистрируйтесь на сайте (ссылка на регистрацию). Pirat.ca - самый быстрый торрент трекер в рунете!

Как скачивать  ·   Что такое торрент  ·   Рейтинг и ограничения

Показать сообщения:    
Ответить на тему

Текущее время: Сегодня 12:09

Часовой пояс: GMT + 4



Вы не можете начинать темы
Вы не можете отвечать на сообщения
Вы не можете редактировать свои сообщения
Вы не можете удалять свои сообщения
Вы не можете голосовать в опросах
Вы не можете прикреплять файлы к сообщениям
Вы не можете скачивать файлы

▼ Вниз