ML
     
  Уважаемый Гость!
Вы можете поддержать проект и зарегистрироваться у наших партнеров - онлайн-стратегия MyLands. При регистрации в игре Вы получите код, который сможете активировать после регистрации на pirat.ca и получить 1000 дублонов.

Ваш код:
ea554e7ed3eacceeae87a8b30a9de3f086c18a84
 
     

Степан Бандера. Следы на Майдане / (Андрей Березин) [2014 г., документальный]

Ответить на тему
 
Автор
Сообщение

Пост 28-Май-2014 19:25

[Q] 

okorm

-Степан Бандера. Следы на Майдане-- Производство: Россия
Жанр: документальный
Год выпуска: 2014 г.
Продолжительность: 00:44:18
Перевод: Не требуется
Оригинальный аудиопоток: русский
Режиссер: Андрей Березин-Описание: Памятники Степану Бандере стоят сегодня по всей Западной Украине. Но многие ли из тех, кто почитает его главным борцом за независимость украинского государства, знают, кем на самом деле был этот человек? О чем молчат современные украинские учебники историки?
С помощью недавно рассекреченных архивных документов и показаний свидетелей авторы фильма попытались пролить свет на биографию Степана Бандеры.-Качество видео: SATRip
Контейнер: AVI
Видео кодек: XviD
Аудио кодек: MP3
Видео: 720x400 (1.80:1), 25 fps, XviD build 64 ~1744 kbps avg, 0.24 bit/pixel
Аудио: 48 kHz, MPEG Layer 3, 2 ch, ~128.00 kbps avg
Cубтитры: отсутствуют
Формат : AVI
Формат/Информация : Audio Video Interleave
Размер файла : 597 Мбайт
Продолжительность : 44 м.
Общий поток : 1883 Кбит/сек
Библиотека кодирования : VirtualDub build 30009/release
Видео
Идентификатор : 0
Формат : MPEG-4 Visual
Профиль формата : Advanced [email protected]
Параметр BVOP формата : 2
Параметр QPel формата : Нет
Параметр GMC формата : Без точки перехода
Параметр матрицы формата : Default (MPEG)
Идентификатор кодека : XVID
Идентификатор кодека/Подсказка : XviD
Продолжительность : 44 м.
Битрейт : 1745 Кбит/сек
Ширина : 720 пикселей
Высота : 400 пикселей
Соотношение сторон : 16:9
Частота кадров : 25,000 кадров/сек
Цветовое пространство : YUV
Субдискретизация насыщенности : 4:2:0
Битовая глубина : 8 бит
Тип развёртки : Прогрессивная
Метод сжатия : С потерями
Бит/(Пиксели*Кадры) : 0.242
Размер потока : 553 Мбайт (93%)
Библиотека кодирования : XviD 64
Аудио
Идентификатор : 1
Формат : MPEG Audio
Версия формата : Version 1
Профиль формата : Layer 3
Режим : Joint stereo
Расширение режима : MS Stereo
Идентификатор кодека : 55
Идентификатор кодека/Подсказка : MP3
Продолжительность : 44 м.
Вид битрейта : Постоянный
Битрейт : 128 Кбит/сек
Каналы : 2 канала
Частота : 48,0 КГц
Метод сжатия : С потерями
Размер потока : 40,6 Мбайт (7%)
Выравнивание : Разделение по промежуткам
Продолжительность промежутка : 40 мс. (1,00 видеокадр)
Время предзагрузки промежутка : 500 мс.
Download / Скачать

Хотите скачать бесплатно? Зарегистрируйтесь на сайте (ссылка на регистрацию). Pirat.ca - самый быстрый торрент трекер в рунете!

Как скачивать  ·   Что такое торрент  ·   Рейтинг и ограничения

kmv01

Гроза морей

Пост 29-Май-2014 11:47 (спустя 16 часов)

[Q] 

Смотрел этот фильм по телевизору. Фашизм он и в Африке фашизм...
[Профиль]  [ЛС] 

BORT-747

Флибустьер

352

Пост 29-Май-2014 20:16 (спустя 8 часов)

[Q] 

540783Смотрел этот фильм по телевизору. Фашизм он и в Африке фашизм...
Читал я такие коменты, на псевдо данные. Мозгов нет - считай зомби...

_________________
[Профиль]  [ЛС] 

AnastasWolf

3475

Пост 01-Июн-2014 00:11 (спустя 2 дня 3 часа)

[Q] 

okorm, а это всё те же архивы, по которым Мамонтов снимал? Или ещё что-то "рассекретили"? Я тв не смотрю, новости читаю редко, а на фоне чисто субъективного интереса к актуальной ныне теме переписывания учебника истории, хотела бы уточнить этот вопрос у "эксперта" по фильмам данной тематики.

_________________
[Профиль]  [ЛС] 

nefrit175

Лоцман

Пост 03-Июн-2014 23:16 (спустя 2 дня 23 часа)

[Q] 

Ну и бред... Это же надо так факты перекручивать...
[Профиль]  [ЛС] 

AnastasWolf

3475

Пост 04-Июн-2014 15:51 (спустя 16 часов)

[Q] 

nefrit175,

_________________
[Профиль]  [ЛС] 
Показать сообщения:    
Ответить на тему

Текущее время: Сегодня 12:12

Часовой пояс: GMT + 4



Вы не можете начинать темы
Вы не можете отвечать на сообщения
Вы не можете редактировать свои сообщения
Вы не можете удалять свои сообщения
Вы не можете голосовать в опросах
Вы не можете прикреплять файлы к сообщениям
Вы не можете скачивать файлы

▼ Вниз