ML
     
  Уважаемый Гость!
Вы можете поддержать проект и зарегистрироваться у наших партнеров - онлайн-стратегия MyLands. При регистрации в игре Вы получите код, который сможете активировать после регистрации на pirat.ca и получить 1000 дублонов.

Ваш код:
34514219cfad5497a1822ecc1269bea77988f9aa
 
     

Почему? / Зашто? / (Павел Байдиков) [2014 г., документальный]

Ответить на тему
 
Автор
Сообщение

Пост 06-Июн-2014 12:41

[Q] 

okorm

-Почему? / Зашто?-- Производство: Россия, Сербия
Жанр: документальный
Год выпуска: 2014 г.
Продолжительность: 00:51:00
Перевод: Не требуется
Оригинальный аудиопоток: русский
Режиссер: Павел Байдиков-Описание: К 15-й годовщине атаки НАТО на Югославию сербская журналистка Елена Милинчич, пережившая бомбардировки, помогает своей американской коллеге Аниссе Науэй понять, что произошло в 1999 году на Балканах.
Путешествуя по городам и селам, пострадавшим от натовской агрессии, встречаясь с людьми, чьи жизни были исковерканы пятнадцать лет назад, сравнивая подходы к освещению конфликта в США и Сербии, они пытаются понять, почему западные державы в течение трех месяцев бомбили Югославию.
В 1999 году Елене было восемнадцать, она училась в Белградском университете. Авианалеты стали неотъемлемой частью ее жизни. Аниссе было шестнадцать, она училась в театральной школе и не имела никакого понятия о том, что страну в самом центре Европы бомбят почти три месяца. Для миллионов обычных граждан на Западе та война так и осталась в памяти лишь срочным выпуском новостей…
Чтобы разобраться в произошедшем, осознать масштаб трагедии, попробовать понять, что же пришлось пережить людям – не чиновникам или политикам – а именно простым людям, спустя 15 лет после разрушительных бомбардировок американка Анисса в сопровождение сербки Елены приехала в Белград.-Качество видео: DVB
Контейнер: TS/M2TS
Видео кодек: MPEG
Аудио кодек: MP3
Видео: MPEG Video, аноморф. 720х576, 4:3, 1429 Кбит/сек, 25 fps
Аудио: MPEG Audio, 160 Кбит/сек, 48 КГц, 2 канала
Cубтитры: отсутствуют
Формат : MPEG-TS
Размер файла : 617 Мбайт
Продолжительность : 51 м.
Режим общего битрейта : Переменный
Общий поток : 1674 Кбит/сек
Видео
Идентификатор : 1807 (0x70F)
Идентификатор меню : 807 (0x327)
Формат : AVC
Формат/Информация : Advanced Video Codec
Профиль формата : [email protected]
Параметр CABAC формата : Да
Параметр ReFrames формата : 3 кадра
Идентификатор кодека : 27
Продолжительность : 51 м.
Битрейт : 1429 Кбит/сек
Ширина : 720 пикселей
Высота : 576 пикселей
Соотношение сторон : 4:3
Частота кадров : 25,000 кадров/сек
Стандарт вещания : PAL
Цветовое пространство : YUV
Субдискретизация насыщенности : 4:2:0
Битовая глубина : 8 бит
Тип развёртки : Чересстрочная
Порядок развёртки : Верхнее поле первое
Бит/(Пиксели*Кадры) : 0.138
Размер потока : 527 Мбайт (85%)
Основные цвета : BT.601 PAL
Характеристики трансфера : BT.470 System B, BT.470 System G
Коэффициенты матрицы : BT.601
Аудио
Идентификатор : 2807 (0xAF7)
Идентификатор меню : 807 (0x327)
Формат : MPEG Audio
Версия формата : Version 1
Профиль формата : Layer 2
Идентификатор кодека : 4
Продолжительность : 51 м.
Вид битрейта : Постоянный
Битрейт : 160 Кбит/сек
Каналы : 2 канала
Частота : 48,0 КГц
Метод сжатия : С потерями
Задержка видео : 44 мс.
Размер потока : 59,0 Мбайт (10%)
Язык : std
Download / Скачать

Хотите скачать бесплатно? Зарегистрируйтесь на сайте (ссылка на регистрацию). Pirat.ca - самый быстрый торрент трекер в рунете!

Как скачивать  ·   Что такое торрент  ·   Рейтинг и ограничения

Показать сообщения:    
Ответить на тему

Текущее время: Сегодня 07:48

Часовой пояс: GMT + 4



Вы не можете начинать темы
Вы не можете отвечать на сообщения
Вы не можете редактировать свои сообщения
Вы не можете удалять свои сообщения
Вы не можете голосовать в опросах
Вы не можете прикреплять файлы к сообщениям
Вы не можете скачивать файлы

▼ Вниз