ML
     
  Уважаемый Гость!
Вы можете поддержать проект и зарегистрироваться у наших партнеров - онлайн-стратегия MyLands. При регистрации в игре Вы получите код, который сможете активировать после регистрации на pirat.ca и получить 1000 дублонов.

Ваш код:
e6008d9811a0b6a1393c3dc51ecd7bc35637bc21
 
     

Специальный корреспондент. Одесса - новая Хатынь. /(Евгений Попов) [2014 г., документальный]

Ответить на тему
 
Автор
Сообщение

Пост 07-Июн-2014 08:27

[Q] 

okorm

- Специальный корреспондент. Одесса - новая Хатынь.-- Производство: Россия
Жанр: документальный,
Дата выпуска: 20.05.2014 г.
Продолжительность: 01:19:52
Перевод: Не требуется
Оригинальный аудиопоток: русский
Режиссер: Евгений Попов
Ведущий: Аркадий Мамонтов-Описание: В программе расследование событий, которые произошли 2 мая в Одессе, когда были убиты, сожжены живьем десятки одесситов, вина которых лишь была в том, что они были против киевского переходного правительства (gemini).-Качество видео: SATRip
Контейнер: AVI
Видео кодек: XviD
Аудио кодек: MP3
Видео: XviD ~1795 kbps, 0.208 bit/pixel, 25 fps, 720х480
Аудио: 48 kHz, MPEG Layer 3, 2 ch, ~128 kbps
Cубтитры: отсутствуют
Формат : AVI
Формат/Информация : Audio Video Interleave
Размер файла : 1,08 Гбайт
Продолжительность : 1 ч. 19 м.
Общий поток : 1933 Кбит/сек
Программа кодирования : VirtualDubMod 1.6.0.0 SURROUND (build 2560/release)
Библиотека кодирования : VirtualDubMod build 2560/release
Видео
Идентификатор : 0
Формат : MPEG-4 Visual
Профиль формата : Advanced [email protected]
Параметр BVOP формата : 2
Параметр QPel формата : Нет
Параметр GMC формата : Без точки перехода
Параметр матрицы формата : Default (MPEG)
Идентификатор кодека : XVID
Идентификатор кодека/Подсказка : XviD
Продолжительность : 1 ч. 19 м.
Битрейт : 1795 Кбит/сек
Ширина : 720 пикселей
Высота : 480 пикселей
Соотношение сторон : 4:3
Соотношение сторон в оригинале : 3:2
Частота кадров : 25,000 кадров/сек
Стандарт вещания : NTSC
Цветовое пространство : YUV
Субдискретизация насыщенности : 4:2:0
Битовая глубина : 8 бит
Тип развёртки : Прогрессивная
Метод сжатия : С потерями
Бит/(Пиксели*Кадры) : 0.208
Размер потока : 1,00 Гбайт (93%)
Библиотека кодирования : XviD 1.2.1 (UTC 2008-12-04)
Аудио
Идентификатор : 1
Формат : MPEG Audio
Версия формата : Version 1
Профиль формата : Layer 3
Режим : Joint stereo
Расширение режима : MS Stereo
Идентификатор кодека : 55
Идентификатор кодека/Подсказка : MP3
Продолжительность : 1 ч. 19 м.
Вид битрейта : Постоянный
Битрейт : 128 Кбит/сек
Каналы : 2 канала
Частота : 48,0 КГц
Метод сжатия : С потерями
Размер потока : 73,1 Мбайт (7%)
Выравнивание : Разделение по промежуткам
Продолжительность промежутка : 40 мс. (1,00 видеокадр)
Время предзагрузки промежутка : 500 мс.
Библиотека кодирования : LAME3.98.4
Download / Скачать

Хотите скачать бесплатно? Зарегистрируйтесь на сайте (ссылка на регистрацию). Pirat.ca - самый быстрый торрент трекер в рунете!

Как скачивать  ·   Что такое торрент  ·   Рейтинг и ограничения



Последний раз редактировалось: okorm (2014-06-07 11:03), всего редактировалось 1 раз

gentgas

Шкипер

Пост 07-Июн-2014 14:45 (спустя 6 часов)

[Q] 

:59: Отказать FACEPALM

_________________

[Профиль]  [ЛС] 

Qdevil

Корсар

Пост 07-Июн-2014 17:47 (спустя 3 часа)

[Q] 

достаточно прочитать описание :59:
[Профиль]  [ЛС] 

interpanik

Корсар

1250

Пост 07-Июн-2014 20:46 (спустя 2 часа 58 минут)

[Q] 

Уберите пропаганду с сайта!

_________________
Уважать или не уважать человека - ваш выбор.
Относиться уважительно - ваше воспитание.
[Профиль]  [ЛС] 

Seva78

1518

Пост 07-Июн-2014 23:46 (спустя 3 часа)

[Q] 

gentgas, Qdevil, interpanik, Каждый имеет право на выбор,качать или не качать,смотреть или не смотреть,верить или не верить,им от туда виднее,что происходит у нас на Украине,зомбиящик делает своё дело))))

_________________
[Профиль]  [ЛС] 

Bugas100

Корсар

1679

Пост 08-Июн-2014 11:07 (спустя 11 часов)

[Q] 

Seva78, Считаю некорректным, что на данном трекере, называют киевскую власть - хунтой...и вина той или иной стороны в тех событиях, на данный момент ни кем не доказана (то, что расследование провели российские журналисты не о чем, не говорит), расследование должны провести специалисты (а не журналисты, которые пишут и снимают как им выгодно, и как выгодно государству которое они представляют) и дать экспертное заключение...А потом будем вешать ярлыки...
Пожалуйста, уберите из описания слово "хунта", т.к. не все население Украины, считает киевскую власть "хунтой", не нужно нас в очередной раз сталкивать, это не делает чести данному трекеру. Считаю - сообщества торрент-трекеров должны быть вне политики (т.к. пользователи трекера представляют многие страны), уважайте мнения всех пользователей трекера (а не только одной части).
Согласен, каждый качает, что ему нравиться, поэтому всем скачавшим - приятного просмотра!
[Профиль]  [ЛС] 

Gemini_13

78

Пост 10-Июн-2014 22:53 (спустя 2 дня 11 часов)

[Q] 

оставлю это тут:
http://pirat.ca/Guidelines.html - п. 2.8
делайте выводы сами

_________________
## .. ионный ускоритель на быстром мазуте.. ##
Жопа - универсальный интерфейс, через который можно сделать всё что угодно.
[Профиль]  [ЛС] 
Показать сообщения:    
Ответить на тему

Текущее время: Сегодня 02:03

Часовой пояс: GMT + 4



Вы не можете начинать темы
Вы не можете отвечать на сообщения
Вы не можете редактировать свои сообщения
Вы не можете удалять свои сообщения
Вы не можете голосовать в опросах
Вы не можете прикреплять файлы к сообщениям
Вы не можете скачивать файлы

▼ Вниз