ML
     
  Уважаемый Гость!
Вы можете поддержать проект и зарегистрироваться у наших партнеров - онлайн-стратегия MyLands. При регистрации в игре Вы получите код, который сможете активировать после регистрации на pirat.ca и получить 1000 дублонов.

Ваш код:
c3360d664ceb84802c84b88ed062a5d134e2ba97
 
     

Выбор Украины / (Валерий Конин) [2014 г., документаьный, специальный репортаж, DVB]

Ответить на тему
 
Автор
Сообщение

Пост 08-Июн-2014 03:38

[Q] 

okorm

-Выбор Украины-- Производство: Россия
Жанр: документаьный, специальный репортаж
Дата выпуска: 26.05.2014 г.
Продолжительность: 00:26:00
Перевод: Не требуется
Оригинальный аудиопоток: русский
Режиссер: Валерий Конин-Описание: Специальный репортаж о происходящих на Украине событиях. 25 мая в стране состоялись президентские выборы. Они пройдут в очень сложной политической и экономической ситуации. Страна расколота. Авторы планируют осветить ход предвыборной кампании, само голосование и его результаты.-Качество видео: DVB
Контейнер: TS/M2TS
Видео кодек: AVC
Аудио кодек: MP3
Видео: AVC, аноморф. 720х576, 4:3, 1883 Кбит/сек, 25 fps
Аудио: MPEG Audio, 160 Кбит/сек, 48 КГц, 2 канала
Cубтитры: Русские
Формат субтитров: Teletext
Формат : MPEG-TS
Размер файла : 400 Мбайт
Продолжительность : 25 м.
Режим общего битрейта : Переменный
Общий поток : 2151 Кбит/сек
Видео
Идентификатор : 1909 (0x775)
Идентификатор меню : 909 (0x38D)
Формат : AVC
Формат/Информация : Advanced Video Codec
Профиль формата : [email protected]
Параметр CABAC формата : Да
Параметр ReFrames формата : 3 кадра
Параметр GOP формата : M=4, N=28
Идентификатор кодека : 27
Продолжительность : 25 м.
Битрейт : 1883 Кбит/сек
Ширина : 720 пикселей
Высота : 576 пикселей
Соотношение сторон : 4:3
Частота кадров : 25,000 кадров/сек
Стандарт вещания : PAL
Цветовое пространство : YUV
Субдискретизация насыщенности : 4:2:0
Битовая глубина : 8 бит
Тип развёртки : Чересстрочная
Порядок развёртки : Верхнее поле первое
Бит/(Пиксели*Кадры) : 0.182
Размер потока : 350 Мбайт (88%)
Основные цвета : BT.601 PAL
Характеристики трансфера : BT.470 System B, BT.470 System G
Коэффициенты матрицы : BT.601
Аудио
Идентификатор : 2909 (0xB5D)
Идентификатор меню : 909 (0x38D)
Формат : MPEG Audio
Версия формата : Version 1
Профиль формата : Layer 2
Идентификатор кодека : 4
Продолжительность : 25 м.
Вид битрейта : Постоянный
Битрейт : 160 Кбит/сек
Каналы : 2 канала
Частота : 48,0 КГц
Метод сжатия : С потерями
Задержка видео : 2 мс.
Размер потока : 29,8 Мбайт (7%)
Язык : std
Язык, дополнительно : Clean effects
Текст
Идентификатор : 32 (0x20)-100
Идентификатор меню : 909 (0x38D)
Формат : Teletext
Меню
Идентификатор : 909 (0x38D)
Идентификатор меню : 909 (0x38D)
Продолжительность : 25 м.
Список : 1909 (0x775) (AVC) / 2909 (0xB5D) (MPEG Audio, std) / 32 (0x20) ()
Язык : / std
Download / Скачать

Хотите скачать бесплатно? Зарегистрируйтесь на сайте (ссылка на регистрацию). Pirat.ca - самый быстрый торрент трекер в рунете!

Как скачивать  ·   Что такое торрент  ·   Рейтинг и ограничения

BORT-747

Флибустьер

352

Пост 18-Июл-2014 21:05 (спустя 1 месяц 10 дней)

[Q] 

Чешуя - одним словом!

_________________
[Профиль]  [ЛС] 
Показать сообщения:    
Ответить на тему

Текущее время: Сегодня 10:07

Часовой пояс: GMT + 4



Вы не можете начинать темы
Вы не можете отвечать на сообщения
Вы не можете редактировать свои сообщения
Вы не можете удалять свои сообщения
Вы не можете голосовать в опросах
Вы не можете прикреплять файлы к сообщениям
Вы не можете скачивать файлы

▼ Вниз