ML
     
  Уважаемый Гость!
Вы можете поддержать проект и зарегистрироваться у наших партнеров - онлайн-стратегия MyLands. При регистрации в игре Вы получите код, который сможете активировать после регистрации на pirat.ca и получить 1000 дублонов.

Ваш код:
a01a592a88af5f9996a6d1baec61b18a1769954d
 
     

Сердце адмирала. Герман Угрюмов / (Татьяна Лебяжьева) [2014 г., документальный, DVB]

Ответить на тему
 
Автор
Сообщение

Пост 10-Июн-2014 20:46

[Q] 

okorm

-Сердце адмирала. Герман Угрюмов-- Производство: Россия
Жанр: документальный
Год выпуска: 2014 г.
Продолжительность: 01:03:00
Перевод: Не требуется
Оригинальный аудиопоток: русский
Режиссер: Татьяна Лебяжьева-Описание: 31 мая - День памяти Героя России, адмирала Германа Алексеевича Угрюмова. За свою службу Герман Угрюмов был награжден многими орденами и медалями, его имя носит боевой корабль, названы улицы во Владивостоке, Грозном, Астрахани (где он родился) и Новороссийске. К сожалению, он ушел из жизни в самом расцвете – 52 года, посвятив все свои силы служению Родине.
Большая часть жизни Германа Угрюмова прошла под грифом «совершенно секретно». По инициативе ЦОС ФСБ РФ некоторые факты деятельности адмирала можно обнародовать.-Качество видео: DVB
Контейнер: TS/M2TS
Видео кодек: AVC
Аудио кодек: MP3
Видео: AVC, аноморф. 720х576, 16:9, 1198 Кбит/сек, 25 fps
Аудио: MPEG Audio, 160 Кбит/сек, 48 КГц, 2 канала
Cубтитры: отсутствуют
Формат : MPEG-TS
Размер файла : 651 Мбайт
Продолжительность : 1 ч. 3 м.
Режим общего битрейта : Переменный
Общий поток : 1431 Кбит/сек
Видео
Идентификатор : 1809 (0x711)
Идентификатор меню : 809 (0x329)
Формат : AVC
Формат/Информация : Advanced Video Codec
Профиль формата : [email protected]
Параметр CABAC формата : Да
Параметр ReFrames формата : 3 кадра
Идентификатор кодека : 27
Продолжительность : 1 ч. 3 м.
Битрейт : 1198 Кбит/сек
Ширина : 720 пикселей
Высота : 576 пикселей
Соотношение сторон : 16:9
Частота кадров : 25,000 кадров/сек
Стандарт вещания : PAL
Цветовое пространство : YUV
Субдискретизация насыщенности : 4:2:0
Битовая глубина : 8 бит
Тип развёртки : Чересстрочная
Порядок развёртки : Верхнее поле первое
Бит/(Пиксели*Кадры) : 0.116
Размер потока : 545 Мбайт (84%)
Основные цвета : BT.601 PAL
Характеристики трансфера : BT.470 System B, BT.470 System G
Коэффициенты матрицы : BT.601
Аудио
Идентификатор : 2809 (0xAF9)
Идентификатор меню : 809 (0x329)
Формат : MPEG Audio
Версия формата : Version 1
Профиль формата : Layer 2
Идентификатор кодека : 4
Продолжительность : 1 ч. 3 м.
Вид битрейта : Постоянный
Битрейт : 160 Кбит/сек
Каналы : 2 канала
Частота : 48,0 КГц
Метод сжатия : С потерями
Задержка видео : 73 мс.
Размер потока : 72,8 Мбайт (11%)
Язык : std
Язык, дополнительно : Clean effects
Download / Скачать

Хотите скачать бесплатно? Зарегистрируйтесь на сайте (ссылка на регистрацию). Pirat.ca - самый быстрый торрент трекер в рунете!

Как скачивать  ·   Что такое торрент  ·   Рейтинг и ограничения

Показать сообщения:    
Ответить на тему

Текущее время: Сегодня 09:50

Часовой пояс: GMT + 4



Вы не можете начинать темы
Вы не можете отвечать на сообщения
Вы не можете редактировать свои сообщения
Вы не можете удалять свои сообщения
Вы не можете голосовать в опросах
Вы не можете прикреплять файлы к сообщениям
Вы не можете скачивать файлы

▼ Вниз