ML
     
  Уважаемый Гость!
Вы можете поддержать проект и зарегистрироваться у наших партнеров - онлайн-стратегия MyLands. При регистрации в игре Вы получите код, который сможете активировать после регистрации на pirat.ca и получить 1000 дублонов.

Ваш код:
c3360d664ceb84802c84b88ed062a5d134e2ba97
 
     

Загадки нашего Я (Виктор Фокеев) [2011 г., документальный, HDTVRip] Original (Rus) + VO

Ответить на тему
 
Автор
Сообщение

Пост 13-Июн-2014 04:04

[Q] 

AnastasWolf

- -Загадки нашего Я Год выпуска: 2011 г.
Производство: Россия
Жанр: документальный
Продолжительность: 00:59:42
Перевод: Профессиональный (одноголосый, закадровый)
Оригинальный аудиопоток: русский
Режиссёр: Виктор Фокеев-В ролях: Mr.Freeman
Владимир Тонков - президент Института биосенсорной психологии
Геннадий Дульнев - профессор, академик РАЕН
Вадим Зеланд - автор книг "Трансерфинг реальности"
Альберт Крашенюк - доктор медицинских наук, профессор
Ши Деян - шаолиньский монах 31-го поколения, носитель истинной традиции Шаолинсы
Ринад Минвалиев - кандидат биологических наук, доцент Санкт-Петербургского Государственного Университета
Яхзетс Инго - психотерапевт, основатель международного Института Исследования Сознания и Психотерапии. Фрайбург, Германия
Амит Госвами - профессор теоретической физики, пионер новой научной парадигмы "наука внутри сознания"
Шераб Тензин Ринпоче - настоятель крупнейшего монастыря Самлинг в Долпо
Виктор Фокеев-Описание:
Фильм о наших мыслях, страхах, желаниях, стереотипах шаблонного восприятия мира и всего того, что постоянно возникает преградой, когда вопрос идёт о реализации наших целей.
В этом фильме мы попробуем рассказать и показать, что человек способен меняться, он способен влиять на окружающий мир и самого себя.
-Качество видео: HDTVRip
Контейнер: MPG
Видео кодек: MPEG2
Аудио кодек: MPEG1
Видео: 720x576, 4188 kbps, 25 fps, 0.404 bit/pixel
Аудио: 224 kbps, 2 ch, 48.0 kHz
Cубтитры: отсутствуют
Общее
Полное имя : Загадки нашего Я.mpg
Формат : MPEG-PS
Размер файла : 1,88 Гбайт
Продолжительность : 59 м.
Режим общего битрейта : Переменный
Общий поток : 4502 Кбит/сек
Видео
Идентификатор : 224 (0xE0)
Формат : MPEG Video
Версия формата : Version 2
Профиль формата : [email protected]
Параметр BVOP формата : Да
Параметр матрицы формата : По умолчанию
Параметр GOP формата : M=3, N=12
Продолжительность : 59 м.
Вид битрейта : Переменный
Битрейт : 4188 Кбит/сек
Максимальный битрейт : 6000 Кбит/сек
Ширина : 720 пикселей
Высота : 576 пикселей
Соотношение сторон : 4:3
Частота кадров : 25,000 кадров/сек
Стандарт вещания : PAL
Цветовое пространство : YUV
Субдискретизация насыщенности : 4:2:0
Битовая глубина : 8 бит
Тип развёртки : Прогрессивная
Метод сжатия : С потерями
Бит/(Пиксели*Кадры) : 0.404
Временной код первого кадра : 00:00:00:00
Оригинал временного кода : Group of pictures header
Размер потока : 1,75 Гбайт (93%)
Аудио
Идентификатор : 192 (0xC0)
Формат : MPEG Audio
Версия формата : Version 1
Профиль формата : Layer 2
Продолжительность : 59 м.
Вид битрейта : Постоянный
Битрейт : 224 Кбит/сек
Каналы : 2 канала
Частота : 48,0 КГц
Метод сжатия : С потерями
Задержка видео : 24 мс.
Размер потока : 95,7 Мбайт (5%)
Скриншоты:
-
Download / Скачать

Хотите скачать бесплатно? Зарегистрируйтесь на сайте (ссылка на регистрацию). Pirat.ca - самый быстрый торрент трекер в рунете!

Как скачивать  ·   Что такое торрент  ·   Рейтинг и ограничения



Последний раз редактировалось: AnastasWolf (2014-06-14 19:33), всего редактировалось 1 раз
Показать сообщения:    
Ответить на тему

Текущее время: Сегодня 10:06

Часовой пояс: GMT + 4



Вы не можете начинать темы
Вы не можете отвечать на сообщения
Вы не можете редактировать свои сообщения
Вы не можете удалять свои сообщения
Вы не можете голосовать в опросах
Вы не можете прикреплять файлы к сообщениям
Вы не можете скачивать файлы

▼ Вниз