ML
     
  Уважаемый Гость!
Вы можете поддержать проект и зарегистрироваться у наших партнеров - онлайн-стратегия MyLands. При регистрации в игре Вы получите код, который сможете активировать после регистрации на pirat.ca и получить 1000 дублонов.

Ваш код:
e6008d9811a0b6a1393c3dc51ecd7bc35637bc21
 
     

Специальный корреспондент. Донбасс в огне / (Евгений Попов, Александр Рогаткин) [2014 г., документальный, SATRip]

Ответить на тему
 
Автор
Сообщение

Пост 23-Июн-2014 16:16

[Q] 

okorm

-Специальный корреспондент. Донбасс в огне-- Производство: Россия
Жанр: документальный
Год выпуска: 2014 г.
Продолжительность: 01:15:10
Перевод: Не требуется
Оригинальный аудиопоток: русский
Режиссер: Евгений Попов, Александр Рогаткин-Описание: Из этого документального расследования, мы узнаем кто приходит в ополчение и кем являются рядовые бойцы армии юго-востока, которые еще вчера вели мирную жизнь и не думали о том, что им предстоит брать в свои руки оружие. Кроме этого, Донбасс в огне – это фильм о тех, кто не могут воевать и кто беззащитны перед артиллеристским огнем, и при первой же возможности стараются покинуть осажденный Славянск и Луганск и Донецк жители которых уже привыкли к взрывам и стрельбе. Речь будет идти и о беженцах, и о том как удается им покидать свои города охваченные войной, и где они находят приют и как живут в дали от родины. Все это смотрите в программе Донбасс в огне «Специальный корреспондент».-Качество видео: SATRip
Контейнер: AVI
Видео кодек: XviD
Аудио кодек: MP3
Видео: 720х464, 1822 Кбит/сек, 25,000 fps
Аудио: 128 Кбит/сек, 2 канала, 48,0 КГц
Cубтитры: отсутствуют
Формат : AVI
Формат/Информация : Audio Video Interleave
Размер файла : 1,03 Гбайт
Продолжительность : 1 ч. 15 м.
Общий поток : 1959 Кбит/сек
Программа кодирования : VirtualDubMod 1.6.0.0 SURROUND (build 2560/release)
Библиотека кодирования : VirtualDubMod build 2560/release
Видео
Идентификатор : 0
Формат : MPEG-4 Visual
Профиль формата : Advanced [email protected]
Параметр BVOP формата : 2
Параметр QPel формата : Нет
Параметр GMC формата : Без точки перехода
Параметр матрицы формата : Default (MPEG)
Идентификатор кодека : XVID
Идентификатор кодека/Подсказка : XviD
Продолжительность : 1 ч. 15 м.
Битрейт : 1822 Кбит/сек
Ширина : 720 пикселей
Высота : 464 пикселя
Соотношение сторон : 4:3
Соотношение сторон в оригинале : 16:10
Частота кадров : 25,000 кадров/сек
Цветовое пространство : YUV
Субдискретизация насыщенности : 4:2:0
Битовая глубина : 8 бит
Тип развёртки : Прогрессивная
Метод сжатия : С потерями
Бит/(Пиксели*Кадры) : 0.218
Размер потока : 979 Мбайт (93%)
Библиотека кодирования : XviD 1.2.1 (UTC 2008-12-04)
Аудио
Идентификатор : 1
Формат : MPEG Audio
Версия формата : Version 1
Профиль формата : Layer 3
Режим : Joint stereo
Расширение режима : MS Stereo
Идентификатор кодека : 55
Идентификатор кодека/Подсказка : MP3
Продолжительность : 1 ч. 15 м.
Вид битрейта : Постоянный
Битрейт : 128 Кбит/сек
Каналы : 2 канала
Частота : 48,0 КГц
Метод сжатия : С потерями
Размер потока : 68,8 Мбайт (7%)
Выравнивание : Разделение по промежуткам
Продолжительность промежутка : 40 мс. (1,00 видеокадр)
Время предзагрузки промежутка : 500 мс.
Download / Скачать

Хотите скачать бесплатно? Зарегистрируйтесь на сайте (ссылка на регистрацию). Pirat.ca - самый быстрый торрент трекер в рунете!

Как скачивать  ·   Что такое торрент  ·   Рейтинг и ограничения

Показать сообщения:    
Ответить на тему

Текущее время: Сегодня 01:59

Часовой пояс: GMT + 4



Вы не можете начинать темы
Вы не можете отвечать на сообщения
Вы не можете редактировать свои сообщения
Вы не можете удалять свои сообщения
Вы не можете голосовать в опросах
Вы не можете прикреплять файлы к сообщениям
Вы не можете скачивать файлы

▼ Вниз