ML
     
  Уважаемый Гость!
Вы можете поддержать проект и зарегистрироваться у наших партнеров - онлайн-стратегия MyLands. При регистрации в игре Вы получите код, который сможете активировать после регистрации на pirat.ca и получить 1000 дублонов.

Ваш код:
a6d1ef7ff63e237add5a4c8b21d8aa937c5e9b4b
 
     

Специальный корреспондент. МАЙДАН как предчувствие / (Александр Рогаткин) [2014 г., документальный, SATRip]

Ответить на тему
 
Автор
Сообщение

Пост 05-Июл-2014 03:55

[Q] 

okorm

-Специальный корреспондент. МАЙДАН как предчувствие -- Производство: Россия
Жанр: документальный
Год выпуска: 2014 г.
Продолжительность: 00:51:37
Перевод: Не требуется
Оригинальный аудиопоток: русский
Режиссер: Александр Рогаткин-Описание: На Украине установилось перемирие. Хрупкое перемирие. Прошли консультации о возможном начале мирных переговорах между Киевом и Юго-Востоком. Сегодня, двадцать четвертого июня, президент Российской Федерации Владимир Путин, обратился к Совету Федерации о том, чтобы отменить разрешение на ввод Российских войск на территорию Украины, которое было принято первого марта 2014 года. Что будет дальше?-Качество видео: SATRip
Контейнер: AVI
Видео кодек: XviD
Аудио кодек: MP3
Видео: 720х432, 1818 Кбит/сек, 25,000 кадров/сек
Аудио: 128 Кбит/сек, 2 канала, 48,0 КГц
Cубтитры: отсутствуют
Формат : AVI
Формат/Информация : Audio Video Interleave
Размер файла : 722 Мбайт
Продолжительность : 51 м.
Общий поток : 1955 Кбит/сек
Программа кодирования : VirtualDubMod 1.6.0.0 SURROUND (build 2560/release)
Библиотека кодирования : VirtualDubMod build 2560/release
Видео
Идентификатор : 0
Формат : MPEG-4 Visual
Профиль формата : Advanced [email protected]
Параметр BVOP формата : 2
Параметр QPel формата : Нет
Параметр GMC формата : Без точки перехода
Параметр матрицы формата : Default (MPEG)
Идентификатор кодека : XVID
Идентификатор кодека/Подсказка : XviD
Продолжительность : 51 м.
Битрейт : 1818 Кбит/сек
Ширина : 720 пикселей
Высота : 432 пикселя
Соотношение сторон : 5:4
Соотношение сторон в оригинале : 1,667
Частота кадров : 25,000 кадров/сек
Цветовое пространство : YUV
Субдискретизация насыщенности : 4:2:0
Битовая глубина : 8 бит
Тип развёртки : Прогрессивная
Метод сжатия : С потерями
Бит/(Пиксели*Кадры) : 0.234
Размер потока : 671 Мбайт (93%)
Библиотека кодирования : XviD 1.2.1 (UTC 2008-12-04)
Аудио
Идентификатор : 1
Формат : MPEG Audio
Версия формата : Version 1
Профиль формата : Layer 3
Режим : Joint stereo
Расширение режима : MS Stereo
Идентификатор кодека : 55
Идентификатор кодека/Подсказка : MP3
Продолжительность : 51 м.
Вид битрейта : Постоянный
Битрейт : 128 Кбит/сек
Каналы : 2 канала
Частота : 48,0 КГц
Метод сжатия : С потерями
Задержка видео : 8 мс.
Размер потока : 47,3 Мбайт (7%)
Выравнивание : Разделение по промежуткам
Продолжительность промежутка : 40 мс. (1,00 видеокадр)
Время предзагрузки промежутка : 500 мс.
Библиотека кодирования : LAMEUUUЂ›nќвh-DЁй3
Download / Скачать

Хотите скачать бесплатно? Зарегистрируйтесь на сайте (ссылка на регистрацию). Pirat.ca - самый быстрый торрент трекер в рунете!

Как скачивать  ·   Что такое торрент  ·   Рейтинг и ограничения

housedoc

Шкипер

Пост 22-Фев-2016 00:03 (спустя 1 год 7 месяцев)

[Q] 

супппер,фильм
[Профиль]  [ЛС] 
Показать сообщения:    
Ответить на тему

Текущее время: Сегодня 13:38

Часовой пояс: GMT + 4



Вы не можете начинать темы
Вы не можете отвечать на сообщения
Вы не можете редактировать свои сообщения
Вы не можете удалять свои сообщения
Вы не можете голосовать в опросах
Вы не можете прикреплять файлы к сообщениям
Вы не можете скачивать файлы

▼ Вниз