ML
     
  Уважаемый Гость!
Вы можете поддержать проект и зарегистрироваться у наших партнеров - онлайн-стратегия MyLands. При регистрации в игре Вы получите код, который сможете активировать после регистрации на pirat.ca и получить 1000 дублонов.

Ваш код:
193c38d0130f05c24de871678ea3ac181461757d
 
     

Специальный корреспондент. Без возврата? / (Александром Бузаладзе) [2014 г., документальный, SATRip]

Ответить на тему
 
Автор
Сообщение

Пост 05-Июл-2014 04:28

[Q] 

okorm

- Специальный корреспондент. Без возврата?-- Производство: Россия
Жанр: документальный
Год выпуска: 2014 г.
Продолжительность: 00:59:45
Перевод: Не требуется
Оригинальный аудиопоток: русский
Режиссер: Александром Бузаладзе-Описание: Ситуация на Украине меняется с молниеносной быстротой. Перемирие - закончилось. Только за один день десятки, а может и сотни убитых и раненых с обеих сторон, а так-же и простых мирных жителей Юго-Восточных регионов. Именно этим событиям и посвящается данная передача снятая режиссером Александром Бузаладзе Специальный корреспондент. Без возврата...-Качество видео: SATRip
Контейнер: AVI
Видео кодек: XviD
Аудио кодек: MP3
Видео: 720х464, 2147 Кбит/сек, 25,000 кадров/сек
Аудио: 128 Кбит/сек, 2 канала, 48,0 КГц
Cубтитры: отсутствуют
Формат : AVI
Формат/Информация : Audio Video Interleave
Размер файла : 977 Мбайт
Продолжительность : 59 м.
Общий поток : 2284 Кбит/сек
Программа кодирования : VirtualDubMod 1.6.0.0 SURROUND (build 2560/release)
Библиотека кодирования : VirtualDubMod build 2560/release
Видео
Идентификатор : 0
Формат : MPEG-4 Visual
Профиль формата : Advanced [email protected]
Параметр BVOP формата : 1
Параметр QPel формата : Нет
Параметр GMC формата : Без точки перехода
Параметр матрицы формата : Default (MPEG)
Идентификатор кодека : XVID
Идентификатор кодека/Подсказка : XviD
Продолжительность : 59 м.
Битрейт : 2147 Кбит/сек
Ширина : 720 пикселей
Высота : 464 пикселя
Соотношение сторон : 4:3
Соотношение сторон в оригинале : 16:10
Частота кадров : 25,000 кадров/сек
Цветовое пространство : YUV
Субдискретизация насыщенности : 4:2:0
Битовая глубина : 8 бит
Тип развёртки : Прогрессивная
Метод сжатия : С потерями
Бит/(Пиксели*Кадры) : 0.257
Размер потока : 918 Мбайт (94%)
Библиотека кодирования : XviD 64
Аудио
Идентификатор : 1
Формат : MPEG Audio
Версия формата : Version 1
Профиль формата : Layer 3
Режим : Joint stereo
Расширение режима : MS Stereo
Идентификатор кодека : 55
Идентификатор кодека/Подсказка : MP3
Продолжительность : 59 м.
Вид битрейта : Постоянный
Битрейт : 128 Кбит/сек
Каналы : 2 канала
Частота : 48,0 КГц
Метод сжатия : С потерями
Размер потока : 54,7 Мбайт (6%)
Выравнивание : Разделение по промежуткам
Продолжительность промежутка : 40 мс. (1,00 видеокадр)
Время предзагрузки промежутка : 500 мс.
Библиотека кодирования : LAME3.98.4
Download / Скачать

Хотите скачать бесплатно? Зарегистрируйтесь на сайте (ссылка на регистрацию). Pirat.ca - самый быстрый торрент трекер в рунете!

Как скачивать  ·   Что такое торрент  ·   Рейтинг и ограничения

Показать сообщения:    
Ответить на тему

Текущее время: Сегодня 18:09

Часовой пояс: GMT + 4



Вы не можете начинать темы
Вы не можете отвечать на сообщения
Вы не можете редактировать свои сообщения
Вы не можете удалять свои сообщения
Вы не можете голосовать в опросах
Вы не можете прикреплять файлы к сообщениям
Вы не можете скачивать файлы

▼ Вниз