ML
     
  Уважаемый Гость!
Вы можете поддержать проект и зарегистрироваться у наших партнеров - онлайн-стратегия MyLands. При регистрации в игре Вы получите код, который сможете активировать после регистрации на pirat.ca и получить 1000 дублонов.

Ваш код:
ca44e9295b9b8527ba1c339c20494f70782efea6
 
     

Профессия - репортер (Еще 17 друзей хунты) [2014 г., Документальный, репортаж, расследование, SATRip] (обновляемая)

Ответить на тему
 
Автор
Сообщение

Пост 31-Авг-2014 15:19

[Q] 

Goodwill

-Профессия - репортер-- Производство: Россия, НТВ
Жанр: Документальный, репортаж, расследование
Год выпуска: 2014 г.
Продолжительность: 00:29:52
Перевод: Не требуется
Режиссер: НТВ+-Описание: "Профессия - репортер" - это цикл телевизионных репортажей на актуальные темы современного мира. Это интересный, острый социальный или экстремальный репортаж. В каждом еженедельном репортаже заложен свой конфликт, актуальность и проблематика. Каждый корреспондент программы - уникален и преподносит телезрителю свою, индивидуальную точку зрения на ту или иную проблему, событие или явление.-Качество видео: SATRip
Контейнер: AVI
Видео кодек: XviD
Аудио кодек: MP3
Видео: XviD, 1800 Кбит/с, 720x448
Аудио: MP3, 2 ch, 128 Кбит/с
Cубтитры: отсутствуют
General
Complete name : W:\Professija-reporter.2014.08.31.SATRip.avi
Format : AVI
Format/Info : Audio Video Interleave
File size : 414 MiB
Duration : 29mn 52s
Overall bit rate : 1 937 Kbps
Writing application : VirtualDubMod 1.5.10.3 | www.virtualdub-fr.org || (build 2550/release)
Writing library : VirtualDub build 32507/release
Video
ID : 0
Format : MPEG-4 Visual
Format profile : Advanced [email protected]
Format settings, BVOP : Yes
Format settings, QPel : No
Format settings, GMC : No warppoints
Format settings, Matrix : Default (MPEG)
Codec ID : XVID
Codec ID/Hint : XviD
Duration : 29mn 52s
Bit rate : 1 800 Kbps
Width : 720 pixels
Height : 448 pixels
Display aspect ratio : 1.607
Frame rate : 25.000 fps
Color space : YUV
Chroma subsampling : 4:2:0
Bit depth : 8 bits
Scan type : Progressive
Bits/(Pixel*Frame) : 0.223
Stream size : 385 MiB (93%)
Writing library : XviD 1.2.1 (UTC 2008-12-04)
Audio
ID : 1
Format : MPEG Audio
Format version : Version 1
Format profile : Layer 3
Mode : Joint stereo
Codec ID : 55
Codec ID/Hint : MP3
Duration : 29mn 52s
Bit rate mode : Constant
Bit rate : 128 Kbps
Channel(s) : 2 channels
Sampling rate : 48.0 KHz
Stream size : 27.4 MiB (7%)
Alignment : Aligned on interleaves
Interleave, duration : 40 ms (1.00 video frame)
Interleave, preload duration : 504 ms
Writing library : LAME3.99r
Encoding settings : -m j -V 4 -q 2 -lowpass 17 -b 128
Download / Скачать

Хотите скачать бесплатно? Зарегистрируйтесь на сайте (ссылка на регистрацию). Pirat.ca - самый быстрый торрент трекер в рунете!

Как скачивать  ·   Что такое торрент  ·   Рейтинг и ограничения

Дядя Витя

53870

Пост 31-Авг-2014 18:41 (спустя 3 часа)

[Q] 

Да мало ли таких сучек, как приходько, на свете.
На крайняк скажет, что заставили, вынудили, время было такое ...

_________________
?
[Профиль]  [ЛС] 

DedMazdai

Пост 31-Авг-2014 20:56 (спустя 2 часа 14 минут)

[Q] 

ИМХО, такому хорошему и полезному ресурсу, как Pirat.ca,
стоило бы воздержаться от размещения
оголтелых пропагандонских пасквилей.
Кому не хватает желчи и остервенения,
пусть устраивает пятиминутку ненависти у себя дома,
а не выливает подобные (как это видео) испражнения в эфир.
[Профиль]  [ЛС] 

SHERHAN

683

Пост 01-Сен-2014 16:31 (спустя 19 часов)

[Q] 

успокойтесь
это просто сатрип

_________________
Рыжий хищник, полосатый,
В меру наглый и усатый,
Днём и ночью он не спит,
Зорко в монитор глядит!
[Профиль]  [ЛС] 

baken

Лоцман

Пост 01-Сен-2014 17:16 (спустя 44 минуты)

[Q] 

DedMazdai в точку!
[Профиль]  [ЛС] 
Показать сообщения:    
Ответить на тему

Текущее время: Сегодня 16:10

Часовой пояс: GMT + 4



Вы не можете начинать темы
Вы не можете отвечать на сообщения
Вы не можете редактировать свои сообщения
Вы не можете удалять свои сообщения
Вы не можете голосовать в опросах
Вы не можете прикреплять файлы к сообщениям
Вы не можете скачивать файлы

▼ Вниз