ML
     
  Уважаемый Гость!
Вы можете поддержать проект и зарегистрироваться у наших партнеров - онлайн-стратегия MyLands. При регистрации в игре Вы получите код, который сможете активировать после регистрации на pirat.ca и получить 1000 дублонов.

Ваш код:
a6d1ef7ff63e237add5a4c8b21d8aa937c5e9b4b
 
     

3 мудреца нашего времени / Three Wise Men of Our Time (Анника Доппинг / Annika Dopping) [1996 г., документальный, VHSRip] VO

Ответить на тему
 
Автор
Сообщение

Пост 23-Сен-2014 23:23

[Q] 

AnastasWolf

3 мудреца нашего времени / Three Wise Men of Our Time- Год выпуска: 1996 г.
Производство: Швеция
Жанр: документальный
Продолжительность: 00:55:14
Перевод: Любительский (одноголосый, закадровый)
Режиссёр: Анника Доппинг / Annika Dopping-В ролях: Далай Лама XIV, Шри Шри Рави Шанкар, Дипак Чопра-Описание:
Беседы с тремя духовными учителями нашего времени.
Далай Лама XIV, Дипак Чопра и Шри Шри Рави Шанкар отвечают на вопросы ведущей.
-Качество видео: VHSRip
Контейнер: AVI
Видео кодек: XviD
Аудио кодек: MP3
Видео: 320x240, 450 kbps, 25 fps, 0.234 bit/pixel
Аудио: 62 kbps, 1 ch, 44.1 kHz
Cубтитры: отсутствуют
Общее
Полное имя : 3 мудреца нашего времени_ Three Wise Men of Our Time.1996.[VHSRip].avi
Формат : AVI
Формат/Информация : Audio Video Interleave
Размер файла : 207 Мбайт
Продолжительность : 55 м.
Режим общего битрейта : Переменный
Общий поток : 525 Кбит/сек
Программа кодирования : MEncoder dev-SVN-rUNKNOWN-4.2.2
Библиотека кодирования : MPlayer
Видео
Идентификатор : 0
Формат : MPEG-4 Visual
Профиль формата : [email protected]
Параметр BVOP формата : Нет
Параметр QPel формата : Нет
Параметр GMC формата : Без точки перехода
Параметр матрицы формата : Default (H.263)
Идентификатор кодека : XVID
Идентификатор кодека/Подсказка : XviD
Продолжительность : 55 м.
Битрейт : 450 Кбит/сек
Ширина : 320 пикселей
Высота : 240 пикселей
Соотношение сторон : 4:3
Частота кадров : 25,000 кадров/сек
Цветовое пространство : YUV
Субдискретизация насыщенности : 4:2:0
Битовая глубина : 8 бит
Тип развёртки : Прогрессивная
Метод сжатия : С потерями
Бит/(Пиксели*Кадры) : 0.234
Размер потока : 178 Мбайт (86%)
Библиотека кодирования : XviD 1.2.0.dev47 (UTC 2006-11-01)
Аудио
Идентификатор : 1
Формат : MPEG Audio
Версия формата : Version 1
Профиль формата : Layer 3
Идентификатор кодека : 55
Идентификатор кодека/Подсказка : MP3
Продолжительность : 55 м.
Вид битрейта : Переменный
Битрейт : 62,3 Кбит/сек
Каналы : 1 канал
Частота : 44,1 КГц
Метод сжатия : С потерями
Размер потока : 24,6 Мбайт (12%)
Выравнивание : Соединение по промежуткам
Продолжительность промежутка : 26 мс. (0,65 видеокадр)
Время предзагрузки промежутка : 520 мс.
Download / Скачать

Хотите скачать бесплатно? Зарегистрируйтесь на сайте (ссылка на регистрацию). Pirat.ca - самый быстрый торрент трекер в рунете!

Как скачивать  ·   Что такое торрент  ·   Рейтинг и ограничения

LPPI

137529

Пост 19-Янв-2015 17:25 (спустя 3 месяца 25 дней)

[Q] 

Классная раздача Супер! Спасибо!!!
[Профиль]  [ЛС] 
Показать сообщения:    
Ответить на тему

Текущее время: Сегодня 13:33

Часовой пояс: GMT + 4



Вы не можете начинать темы
Вы не можете отвечать на сообщения
Вы не можете редактировать свои сообщения
Вы не можете удалять свои сообщения
Вы не можете голосовать в опросах
Вы не можете прикреплять файлы к сообщениям
Вы не можете скачивать файлы

▼ Вниз