ML
     
  Уважаемый Гость!
Вы можете поддержать проект и зарегистрироваться у наших партнеров - онлайн-стратегия MyLands. При регистрации в игре Вы получите код, который сможете активировать после регистрации на pirat.ca и получить 1000 дублонов.

Ваш код:
0fcd44bd35319f69313aa6e53b31c51cbff1c942
 
     

Добров в эфире [18.01.2015, Информационно-аналитическая программа, SATRip, 576p]

Ответить на тему
 
Автор
Сообщение

Пост 19-Янв-2015 11:39

[Q] 

w-man

Лоцман

-Добров в эфире -- Производство: РЕН ТВ
Жанр: Информационно-аналитическая программа
Дата выпуска: 18.01.2015
Продолжительность: 00:54:37
Перевод: Не требуется
Оригинальный аудиопоток: русский
Режиссер: авторский коллектив-Описание: В последний час уходящей недели известный российский журналист и политолог Андрей Добров расскажет о самом интересном в стране и в мире. Самые обсуждаемые события недели. Все, о чем говорили, спорили и писали. О том, что осталось за кадром. Как все было на самом деле. Неожиданные факты. Эксклюзивные съемки. Авторские репортажи. Главные ньюсмейкеры страны. Динамично. Ярко. Доступно.-Качество видео: SATRip
Контейнер: AVI
Стандарт разрешения: 576p
Видео кодек: XviD
Аудио кодек: AC3
Видео: 720*472, 25 fps, ~1800 Kbit/s
Аудио: АС3, 48000 Hz, 2 канала, 192 kbit/s
Cубтитры: отсутствуют
Complete name : Dobrov.v.efire.2015.01.18.SATRip.avi
Format : AVI
Format/Info : Audio Video Interleave
File size : 782 MiB
Duration : 54mn 37s
Overall bit rate : 2 001 Kbps
Writing application : VirtualDubMod 1.5.10.3 | www.virtualdub-fr.org || (build 2550/release)
Writing library : VirtualDubMod build 2550/release
Video
ID : 0
Format : MPEG-4 Visual
Format profile : Advanced [email protected]
Format settings, BVOP : Yes
Format settings, QPel : No
Format settings, GMC : No warppoints
Format settings, Matrix : Default (H.263)
Codec ID : XVID
Codec ID/Hint : XviD
Duration : 54mn 37s
Bit rate : 1 800 Kbps
Width : 720 pixels
Height : 472 pixels
Display aspect ratio : 3:2
Frame rate : 25.000 fps
Color space : YUV
Chroma subsampling : 4:2:0
Bit depth : 8 bits
Scan type : Progressive
Bits/(Pixel*Frame) : 0.212
Stream size : 703 MiB (90%)
Writing library : XviD 1.2.1 (UTC 2008-12-04)
Audio
ID : 1
Format : AC-3
Format/Info : Audio Coding 3
Mode extension : CM (complete main)
Codec ID : 2000
Duration : 54mn 37s
Bit rate mode : Constant
Bit rate : 192 Kbps
Channel(s) : 2 channels
Channel positions : Front: L R
Sampling rate : 48.0 KHz
Bit depth : 16 bits
Stream size : 75.0 MiB (10%)
Alignment : Split accross interleaves
Interleave, duration : 40 ms (1.00 video frame)
Interleave, preload duration : 500 ms
Download / Скачать

Хотите скачать бесплатно? Зарегистрируйтесь на сайте (ссылка на регистрацию). Pirat.ca - самый быстрый торрент трекер в рунете!

Как скачивать  ·   Что такое торрент  ·   Рейтинг и ограничения



Последний раз редактировалось: w-man (2015-01-23 18:27), всего редактировалось 2 раз(а)

SGSoft

Флибустьер

Пост 19-Янв-2015 22:09 (спустя 10 часов)

[Q] 

Благодарю за труд раздающего. Программа для меня интересна, есть индивидуальность, способы подачи материала привлекают.
[Профиль]  [ЛС] 

Незнайка

Флибустьер

Пост 19-Янв-2015 22:24 (спустя 14 минут)

[Q] 

Спасибо!!!
[Профиль]  [ЛС] 

UcrusPazzo

7670

Пост 20-Янв-2015 18:55 (спустя 20 часов)

[Q] 

А все 12 выпусков не хотите сделать?
Скриншотов должно быть миним 4.
Для заполнения строк видео и аудио, используйте программу AviInfo (Как получить информацию по видеофайлу?)

_________________
[Профиль]  [ЛС] 

w-man ®

Лоцман

25

Пост 23-Янв-2015 18:20 (спустя 2 дня 23 часа)

[Q] 

UcrusPazzo, а чем медиаинфо не подходит?
оформлять остальные выпуски не буду, поскольку сидировать их нет желания
[Профиль]  [ЛС] 

UcrusPazzo

7670

Пост 26-Янв-2015 18:49 (спустя 3 дня)

[Q] 

634591UcrusPazzo, а чем медиаинфо не подходит?
оформлять остальные выпуски не буду, поскольку сидировать их нет желания
Так положено по оформлению!

_________________
[Профиль]  [ЛС] 
Показать сообщения:    
Ответить на тему

Текущее время: Сегодня 02:10

Часовой пояс: GMT + 4



Вы не можете начинать темы
Вы не можете отвечать на сообщения
Вы не можете редактировать свои сообщения
Вы не можете удалять свои сообщения
Вы не можете голосовать в опросах
Вы не можете прикреплять файлы к сообщениям
Вы не можете скачивать файлы

▼ Вниз