ML
     
  Уважаемый Гость!
Вы можете поддержать проект и зарегистрироваться у наших партнеров - онлайн-стратегия MyLands. При регистрации в игре Вы получите код, который сможете активировать после регистрации на pirat.ca и получить 1000 дублонов.

Ваш код:
c89b4b6523eaac3173e9a9c062ac1a19db575961
 
     

Игра Престолов: Съемки 5 сезона / Game of Thrones (Алан Тейлор / Alan Taylor, Дэвид Наттер / David Nutter, Алекс Грейвз / Alex Graves) [2015 г., документальный, HDTVRip] DVO (ColdFilm)

Ответить на тему
 
Автор
Сообщение

Пост 10-Фев-2015 01:39

[Q] 

nbdjod

Корсар

-Игра Престолов: Съемки 5 сезона / Game of Thrones -- Производство: США, Великобритания
Жанр: документальный
Год выпуска: 2015 г.
Продолжительность: 00:26:00
Перевод: Любительский (двухголосый, закадровый) [ColdFilm]
Режиссер: Алан Тейлор / Alan Taylor, Дэвид Наттер / David Nutter, Алекс Грейвз / Alex Graves-В ролях: Лина Хиди, Эмилия Кларк, Кит Харингтон, Николай Костер-Вальдау, Мэйси Уильямс, Софи Тернер, Айзек Хемпстед-Райт, Чарльз Дэнс-Описание: Фильм о съёмках предстоящего пятого сезона.-Качество видео: HDTVRip
Контейнер: AVI
Видео кодек: XviD
Аудио кодек: MP3
Видео: 1798 Кбит/сек, 720x400 (16:9), 23,976 кадра/сек, 0.249 Бит/(Пиксели*Кадры)
Аудио: 128 Кбит/сек, CBR, 2 канала, 44,1 КГц
Cубтитры: отсутствуют
Код:
Общее
Полное имя                               : D:\movies\pirat.ca\Igra.Prestolov.S05E00.HDTVRip.ColdFilm.MegaPeer.avi
Формат                                   : AVI
Формат/Информация                        : Audio Video Interleave
Размер файла                             : 360 Мбайт
Продолжительность                        : 25 м.
Общий поток                              : 1935 Кбит/сек
Программа кодирования                    : VirtualDubMod 1.5.10.3 | www.virtualdub-fr.org || (build 2550/release)
Библиотека кодирования                   : VirtualDubMod build 2550/release
Видео
Идентификатор                            : 0
Формат                                   : MPEG-4 Visual
Профиль формата                          : Advanced [email protected]
Параметр BVOP формата                    : 1
Параметр QPel формата                    : Нет
Параметр GMC формата                     : Без точки перехода
Параметр матрицы формата                 : Выборочная
Идентификатор кодека                     : XVID
Идентификатор кодека/Подсказка           : XviD
Продолжительность                        : 25 м.
Битрейт                                  : 1798 Кбит/сек
Ширина                                   : 720 пикселей
Высота                                   : 400 пикселей
Соотношение сторон                       : 16:9
Частота кадров                           : 23,976 кадра/сек
Цветовое пространство                    : YUV
Субдискретизация насыщенности            : 4:2:0
Битовая глубина                          : 8 бит
Тип развёртки                            : Прогрессивная
Метод сжатия                             : С потерями
Бит/(Пиксели*Кадры)                      : 0.249
Размер потока                            : 320 Мбайт (89%)
Библиотека кодирования                   : XviD 73
Аудио
Идентификатор                            : 1
Формат                                   : MPEG Audio
Версия формата                           : Version 1
Профиль формата                          : Layer 3
Идентификатор кодека                     : 55
Идентификатор кодека/Подсказка           : MP3
Продолжительность                        : 25 м.
Вид битрейта                             : Постоянный
Битрейт                                  : 128 Кбит/сек
Каналы                                   : 2 канала
Частота                                  : 44,1 КГц
Метод сжатия                             : С потерями
Размер потока                            : 23,8 Мбайт (7%)
Выравнивание                             : Разделение по промежуткам
Библиотека кодирования                   : LAME3.99r
Настройки программы                      : -m s -V 4 -q 2 -lowpass 17 -b 128
Download / Скачать

Хотите скачать бесплатно? Зарегистрируйтесь на сайте (ссылка на регистрацию). Pirat.ca - самый быстрый торрент трекер в рунете!

Как скачивать  ·   Что такое торрент  ·   Рейтинг и ограничения



Последний раз редактировалось: nbdjod (2015-02-11 18:05), всего редактировалось 2 раз(а)

nik0lay

Морской Волк

Пост 10-Фев-2015 07:21 (спустя 5 часов)

[Q] 

Жду сам сериал с нетерпением Спасибо!!! Автору респект!!!
[Профиль]  [ЛС] 

TERMOS

Легенда

12068

Пост 11-Фев-2015 01:08 (спустя 17 часов)

[Q] 

nbdjod, жанр поменяй на документальный. Это же не сам сериал.

_________________
[Профиль]  [ЛС] 

UcrusPazzo

7670

Пост 11-Фев-2015 10:41 (спустя 9 часов)

[Q] 

фэнтези, драма, приключения это не сам сериал! И зачем ссылку на imdb и на кинопоиск? Это же не сериал!?
• В раздаче должно быть минимум 4 (четыре) отдельных скриншота.

_________________
[Профиль]  [ЛС] 
Показать сообщения:    
Ответить на тему

Текущее время: Сегодня 22:28

Часовой пояс: GMT + 4



Вы не можете начинать темы
Вы не можете отвечать на сообщения
Вы не можете редактировать свои сообщения
Вы не можете удалять свои сообщения
Вы не можете голосовать в опросах
Вы не можете прикреплять файлы к сообщениям
Вы не можете скачивать файлы

▼ Вниз