ML
     
  Уважаемый Гость!
Вы можете поддержать проект и зарегистрироваться у наших партнеров - онлайн-стратегия MyLands. При регистрации в игре Вы получите код, который сможете активировать после регистрации на pirat.ca и получить 1000 дублонов.

Ваш код:
b70663c760e7cd2521b8e123786cdd788200e3bd
 
     

Десять вопросов Далай-Ламе / 10 Questions for the Dalai Lama (Рик Рэй / Rick Ray) [2006 г., документальный, SATRip] VO + Sub (Ger)

Ответить на тему
 
Автор
Сообщение

Пост 12-Фев-2015 22:29

[Q] 

LPPI

-Десять вопросов Далай-Ламе / 10 Questions for the Dalai Lama- Производство: США, Rick Ray Films
Жанр: документальный
Год выпуска: 2006 г.
Продолжительность: 01:26:34
Мировая премьера: 1 мая 2006
Перевод: Профессиональный (одноголосый, закадровый)
Автор(ы) перевода: Наталья Иноземцева-Режиссер: Рик Рэй / Rick Ray
В ролях: Далай Лама, Тензин Тетхонг-Описание: Возможно ли придерживаться ненасилия, когда тебе угрожает непосредственная опасность? Почему бедные кажутся счастливее богатых? Должно ли общество отказаться от своих традиций ради движения вперед? В своем фильме режиссер-документалист Рик Рэй пытается найти ответы на фундаментальные вопросы современности, опираясь на собственные наблюдения, почерпнутые им во время путешествия по Индии и Ближнему Востоку, а также на мудрость выдающегося духовного лидера, Четырнадцатого Далай-ламы.- -Качество видео: SATRip
Контейнер: AVI
Видео кодек: XviD
Аудио кодек: AC3
Видео: 704x528 (1.33:1), 25 fps, XviD build 50 ~2026 kbps avg, 0.22 bit/pixel
Аудио: 48 kHz, AC3 Dolby Digital, 2/0 (L,R) ch, ~224 kbps
Cубтитры: немецкие
Формат субтитров: hardsub (неотключаемые)
General
Complete name : C:\Users\Ivan\Desktop\10.Questions.for.the.Dalai.Lama.2006.SATRip.avi
Format : AVI
Format/Info : Audio Video Interleave
File size : 1.37 GiB
Duration : 1h 26mn
Overall bit rate : 2 260 Kbps
Writing application : VirtualDubMod 1.5.10.2 (build 2540/release)
Writing library : VirtualDubMod build 2540/release
Video
ID : 0
Format : MPEG-4 Visual
Format profile : Advanced [email protected]
Format settings, BVOP : 2
Format settings, QPel : No
Format settings, GMC : No warppoints
Format settings, Matrix : Default (MPEG)
Codec ID : XVID
Codec ID/Hint : XviD
Duration : 1h 26mn
Bit rate : 2 027 Kbps
Width : 704 pixels
Height : 528 pixels
Display aspect ratio : 4:3
Frame rate : 25.000 fps
Color space : YUV
Chroma subsampling : 4:2:0
Bit depth : 8 bits
Scan type : Progressive
Compression mode : Lossy
Bits/(Pixel*Frame) : 0.218
Stream size : 1.23 GiB (90%)
Writing library : XviD 1.2.1 (UTC 2008-12-04)
Audio
ID : 1
Format : AC-3
Format/Info : Audio Coding 3
Mode extension : CM (complete main)
Format settings, Endianness : Big
Codec ID : 2000
Duration : 1h 26mn
Bit rate mode : Constant
Bit rate : 224 Kbps
Channel(s) : 2 channels
Channel positions : Front: L R
Sampling rate : 48.0 KHz
Bit depth : 16 bits
Compression mode : Lossy
Stream size : 139 MiB (10%)
Alignment : Split accross interleaves
Interleave, duration : 40 ms (1.00 video frame)
Interleave, preload duratio : 500 ms
Download / Скачать

Хотите скачать бесплатно? Зарегистрируйтесь на сайте (ссылка на регистрацию). Pirat.ca - самый быстрый торрент трекер в рунете!

Как скачивать  ·   Что такое торрент  ·   Рейтинг и ограничения

Показать сообщения:    
Ответить на тему

Текущее время: Сегодня 00:19

Часовой пояс: GMT + 4



Вы не можете начинать темы
Вы не можете отвечать на сообщения
Вы не можете редактировать свои сообщения
Вы не можете удалять свои сообщения
Вы не можете голосовать в опросах
Вы не можете прикреплять файлы к сообщениям
Вы не можете скачивать файлы

▼ Вниз