ML
     
  Уважаемый Гость!
Вы можете поддержать проект и зарегистрироваться у наших партнеров - онлайн-стратегия MyLands. При регистрации в игре Вы получите код, который сможете активировать после регистрации на pirat.ca и получить 1000 дублонов.

Ваш код:
a978488e62322cd72e113ab723b8a7fdc10eb9b9
 
     

В поисках Шангри-Ла / Finding Shangri-La (Тед Вэйл / Ted Vaill) [2009 г., документальный, драма, DVDRip] VO

Ответить на тему
 
Автор
Сообщение

Пост 17-Фев-2015 22:09

[Q] 

LPPI

-В поисках Шангри-Ла / Finding Shangri-La- Производство: США
Жанр: документальный, драма
Год выпуска: 2009 г.
Продолжительность: 01:46:43
Перевод: Любительский (одноголосый, закадровый)-Режиссер: Тед Вэйл / Ted Vaill
В ролях: Фрэнк Капра мл., Питер Фейсер, Питер Клика, Тед Вэйл, Джейн Уайатт-Описание: Цзи Лин, потерявшая сына, однажды в его комнате нашла записку «Игра по поиску сокровища», которая указывала, что она должна побывать на святой горе в Шангри-Ла в провинции Юньнань. Цзи Лин посчитала, что это вызов от ее сына, поэтому она отправилась в волшебное место Шангри-Ла, чтобы найти ответ. На пути она встретила таинственного незнакомца Алекса, и они решили вместе отыскать святую гору. Цзи Лин привлек этот мужчина, однако в процессе поисков святой горы она начала сомневаться в личности Aлекса…- -Качество видео: DVDRip
Контейнер: AVI
Видео кодек: XviD
Аудио кодек: AC3
Видео: 608x336 (1.81:1), 23.976 fps, XviD MPEG-4 ~774 kbps avg, 0.16 bit/pixel
Аудио: 48 kHz, AC3 Dolby Digital, 2/0 (L,R) ch, ~128 kbps
Cубтитры: отсутствуют
General
Complete name : D:\V_poiskah_Shangri La.2009.DVDRip.avi
Format : AVI
Format/Info : Audio Video Interleave
File size : 696 MiB
Duration : 1h 46mn
Overall bit rate : 912 Kbps
Writing library : VirtualDub build 30009/release
Video
ID : 0
Format : MPEG-4 Visual
Format profile : Advanced [email protected]
Format settings, BVOP : 2
Format settings, QPel : Yes
Format settings, GMC : No warppoints
Format settings, Matrix : Default (H.263)
Muxing mode : Packed bitstream
Codec ID : XVID
Codec ID/Hint : XviD
Duration : 1h 46mn
Bit rate : 774 Kbps
Width : 608 pixels
Height : 336 pixels
Display aspect ratio : 16:9
Frame rate : 23.976 fps
Color space : YUV
Chroma subsampling : 4:2:0
Bit depth : 8 bits
Scan type : Progressive
Compression mode : Lossy
Bits/(Pixel*Frame) : 0.158
Stream size : 591 MiB (85%)
Writing library : XviD 1.1.2 (UTC 2006-11-01)
Audio
ID : 1
Format : AC-3
Format/Info : Audio Coding 3
Mode extension : CM (complete main)
Format settings, Endianness : Big
Codec ID : 2000
Duration : 1h 46mn
Bit rate mode : Constant
Bit rate : 128 Kbps
Channel(s) : 2 channels
Channel positions : Front: L R
Sampling rate : 48.0 KHz
Bit depth : 16 bits
Compression mode : Lossy
Stream size : 97.7 MiB (14%)
Alignment : Aligned on interleaves
Interleave, duration : 42 ms (1.00 video frame)
Interleave, preload duratio : 992 ms
Download / Скачать

Хотите скачать бесплатно? Зарегистрируйтесь на сайте (ссылка на регистрацию). Pirat.ca - самый быстрый торрент трекер в рунете!

Как скачивать  ·   Что такое торрент  ·   Рейтинг и ограничения

Показать сообщения:    
Ответить на тему

Текущее время: Сегодня 22:08

Часовой пояс: GMT + 4



Вы не можете начинать темы
Вы не можете отвечать на сообщения
Вы не можете редактировать свои сообщения
Вы не можете удалять свои сообщения
Вы не можете голосовать в опросах
Вы не можете прикреплять файлы к сообщениям
Вы не можете скачивать файлы

▼ Вниз