ML
     
  Уважаемый Гость!
Вы можете поддержать проект и зарегистрироваться у наших партнеров - онлайн-стратегия MyLands. При регистрации в игре Вы получите код, который сможете активировать после регистрации на pirat.ca и получить 1000 дублонов.

Ваш код:
fe4e93b754a7c2b306fcfc8bc32532ea1cf59d3b
 
     

Джордж Харрисон. Жизнь в материальном мире / George Harrison. Living in the Material World / (части 1-2 из 2) (Мартин Скорсезе/Martin Scorsese) [2011 г., Документальный, музыкальный, BDRip] MVO

Ответить на тему
 
Автор
Сообщение

Пост 06-Мар-2015 13:56

[Q] 

Creed72

-Джордж Харрисон. Жизнь в материальном мире / George Harrison. Living in the Material World-- Производство: США, Grove Street Pictures & Spitfire Picture
Жанр: Документальный, музыкальный
Год выпуска: 2011 г.
Продолжительность: 01:34:24 | 01:54:17
Мировая премьера: 2 сентября 2011
Российская премьера: 23 августа 2012
Дата выхода DVD: 5 ноября 2012
Перевод: Профессиональный (многоголосый, закадровый)
Режиссер: Мартин Скорсезе/Martin Scorsese-В ролях: Пол МакКартни, Терри Гиллиам, Клаус Воорман, Астрид Кирхгерр, Джордж Харрисон, Нил Аспинал, Ринго Старр, Джон Леннон, Джордж Мартин, Эрик Айдл, Эрик Клэптон, Дани Харрисон, Оливия Харрисон, Джефф Линн, Том Петти, Рави Шанкар, Патти Бойд, Мукунда Госвами, Фил Спектор, Рей Купер, Джейн Биркин, Йоко Оно, Дерек Тейлор, Джим Келтнер, Кейн Скотт, Джэки Стюарт, Гордон Мюррей, Дэймон Хилл-Описание: Документальный фильм Мартина Скорсезе о жизни и духовных исканиях Джорджа Харрисона. Фильм охватывает всю жизнь музыканта, от ранних лет в Ливерпуле, участие в The Beatles, творчество и жизнь после распада легендарной группы, духовных исканий и до последних дней в швейцарской клинике. Это редкая для рок-звезд история счастливого человека, добившегося гармонии духовного и материального мира через музыку.
В фильме использованы материалы из архива музыканта. В ленту вошли интервью с Полом МакКартни, Ринго Старром, Йоко Оно, Эриком Клэптоном, Филом Спектором, Рави Шанкаром и другими.-
Качество видео: BDRip
Контейнер: MP4
Видео кодек: XviD
Аудио кодек: AC3
Видео: 720х400, ~ 1650 Кбит/с, 23,976 кадра/сек
Аудио: 224 Кбит/сек, 2 ch, 48,0 КГц
Cубтитры: отсутствуют
Формат : AVI
Формат/Информация : Audio Video Interleave
Размер файла : 1,35 Гбайт
Продолжительность : 1 ч. 34 м.
Общий поток : 2043 Кбит/сек
Название фильма : Джордж Харрисон: Жизнь в материальном мире / George Harrison: Living in the Material World (2011)
Программа кодирования : VirtualDubMod 1.5.10.2 (build 2540/release)
Библиотека кодирования : VirtualDubMod build 2540/release
Видео
Идентификатор : 0
Формат : MPEG-4 Visual
Профиль формата : Advanced [email protected]
Параметр BVOP формата : 3
Параметр QPel формата : Нет
Параметр GMC формата : Без точки перехода
Параметр матрицы формата : Default (MPEG)
Идентификатор кодека : XVID
Идентификатор кодека/Подсказка : XviD
Продолжительность : 1 ч. 34 м.
Битрейт : ~ 1650 Кбит/с
Ширина : 720 пикселей
Высота : 400 пикселей
Соотношение сторон : 16:9
Частота кадров : 23,976 кадра/сек
Цветовое пространство : YUV
Субдискретизация насыщенности : 4:2:0
Битовая глубина : 8 бит
Тип развёртки : Прогрессивная
Метод сжатия : С потерями
Бит/(Пиксели*Кадры) : 0.262
Размер потока : 1,19 Гбайт (89%)
Библиотека кодирования : XviD 1.2.1 (UTC 2008-12-04)
Аудио
Идентификатор : 1
Формат : AC-3
Формат/Информация : Audio Coding 3
Расширение режима : CM (complete main)
Параметр Endianness формата : Big
Идентификатор кодека : 2000
Продолжительность : 1 ч. 34 м.
Вид битрейта : Постоянный
Битрейт : 224 Кбит/сек
Каналы : 2 канала
Расположение каналов : Front: L R
Частота : 48,0 КГц
Битовая глубина : 16 бит
Метод сжатия : С потерями
Размер потока : 151 Мбайт (11%)
Выравнивание : Разделение по промежуткам
Продолжительность промежутка : 42 мс. (1,00 видеокадр)
Время предзагрузки промежутка : 500 мс.
Заголовок : Профессиональный (многоголосый, закадровый) 1 канал
Формат : AVI
Формат/Информация : Audio Video Interleave
Размер файла : 1,38 Гбайт
Продолжительность : 1 ч. 54 м.
Общий поток : 1723 Кбит/сек
Название фильма : Джордж Харрисон: Жизнь в материальном мире / George Harrison: Living in the Material World (2011)
Программа кодирования : VirtualDubMod 1.5.10.2 (build 2540/release)
Библиотека кодирования : VirtualDubMod build 2540/release
Видео
Идентификатор : 0
Формат : MPEG-4 Visual
Профиль формата : Advanced [email protected]
Параметр BVOP формата : 3
Параметр QPel формата : Нет
Параметр GMC формата : Без точки перехода
Параметр матрицы формата : Default (MPEG)
Идентификатор кодека : XVID
Идентификатор кодека/Подсказка : XviD
Продолжительность : 1 ч. 54 м.
Битрейт : 1490 Кбит/сек
Ширина : 720 пикселей
Высота : 400 пикселей
Соотношение сторон : 16:9
Частота кадров : 23,976 кадра/сек
Цветовое пространство : YUV
Субдискретизация насыщенности : 4:2:0
Битовая глубина : 8 бит
Тип развёртки : Прогрессивная
Метод сжатия : С потерями
Бит/(Пиксели*Кадры) : 0.216
Размер потока : 1,19 Гбайт (86%)
Библиотека кодирования : XviD 1.2.1 (UTC 2008-12-04)
Аудио
Идентификатор : 1
Формат : AC-3
Формат/Информация : Audio Coding 3
Расширение режима : CM (complete main)
Параметр Endianness формата : Big
Идентификатор кодека : 2000
Продолжительность : 1 ч. 54 м.
Вид битрейта : Постоянный
Битрейт : 224 Кбит/сек
Каналы : 2 канала
Расположение каналов : Front: L R
Частота : 48,0 КГц
Битовая глубина : 16 бит
Метод сжатия : С потерями
Размер потока : 183 Мбайт (13%)
Выравнивание : Разделение по промежуткам
Продолжительность промежутка : 42 мс. (1,00 видеокадр)
Время предзагрузки промежутка : 500 мс.
Заголовок : Профессиональный (многоголосый, закадровый) 1 канал
Download / Скачать

Хотите скачать бесплатно? Зарегистрируйтесь на сайте (ссылка на регистрацию). Pirat.ca - самый быстрый торрент трекер в рунете!

Как скачивать  ·   Что такое торрент  ·   Рейтинг и ограничения

razerface

Флибустьер

2398

Пост 07-Мар-2015 15:48 (спустя 1 день 1 час)

[Q] 

Один из лучших гитаристов Мира, вечная память ему. Спасибо за раздачу, большое человеческое.

_________________
Я — личность творческая, хочу творю, хочу вытворяю!
[Профиль]  [ЛС] 
Показать сообщения:    
Ответить на тему

Текущее время: Сегодня 14:29

Часовой пояс: GMT + 4



Вы не можете начинать темы
Вы не можете отвечать на сообщения
Вы не можете редактировать свои сообщения
Вы не можете удалять свои сообщения
Вы не можете голосовать в опросах
Вы не можете прикреплять файлы к сообщениям
Вы не можете скачивать файлы

▼ Вниз