ML
     
  Уважаемый Гость!
Вы можете поддержать проект и зарегистрироваться у наших партнеров - онлайн-стратегия MyLands. При регистрации в игре Вы получите код, который сможете активировать после регистрации на pirat.ca и получить 1000 дублонов.

Ваш код:
0af2e2107bc9b5dd5ac2c09f9fc25e1a77c43887
 
     

Донбасс. На линии огня / Серии: 1-19 из 19 (Макс Фадеев) [2014-2015 г., Документальный, новейшая история, война, WEB-DLRip]

Ответить на тему
 
Автор
Сообщение

Пост 11-Мар-2015 16:38

[Q] 

LPPI

-Донбасс. На линии огня- Производство: Новороссия, ANNA News, News-Front
Жанр: Документальный, новейшая история, война
Год выпуска: 2014-2015 г.-Серии: 19 из 19 серий
Продолжительность: ~ 00:30:00 мин серия-Режиссер: Макс Фадеев-Описание: День за днем журналист и оператор в одном лице снимал жизнь Донецка в военное время. Вся правда изнутри: то, что скрывают украинские СМИ, и то, что не показывают на Западе. Как день за днем уничтожалось мирное население Донецкой Народной Республики. Журналист Информационного Центра «Юго-Восточный Фронт» Максим Фадеев, пережив осаду Славянска, в данное время находится в Донецке, где создает документальный проект «Донбасс. На линии огня». Максим Фадеев - это автор фильма «Славянск. Война изнутри» или второе название урезанной версии «Славянск. Хроника войны».- -Качество видео: WEB-DLRip
Контейнер: AVI
Видео кодек: XviD
Аудио кодек: AC3
Видео: 720x400 (1.80:1), 30 fps, XviD build 73 ~1468 kbps avg, 0.17 bit/pixel
Аудио: 48 kHz, AC3 Dolby Digital, 2/0 (L,R) ch, ~192 kbps
Cубтитры: отсутствуют-18+
Фильм содержит шокирующие кадры!
Присутствует ненормативная лексика.
Не рекомендуется детям, беременным женщинам и лицам со слабыми нервами и психикой!
-
01. Прифронтовой город
02. Памяти воина «Волка»
03. С любовью. Донецк
04. Терминал
05. Сепаратисты
06. Новороссия. Новый 2015
07. На войне, как на войне
08. Дорогами войны
09. Привет из Горловки
BONUS:
01. Взгляд изнутри. Бомбежка мирного населения.
02. Не вошедшее. Интервью с врачом, позывной «Док»
03. Новороссия. Где-то там война...
04. Кровь и слезы Украины
05. Славянск. Хроника войны (Полная версия без цензуры)
06. Беда Донбасса
07. Унесенные смерчем
08. Видео-дневники ополченца Константина Трифонова. Часть 1
09. Видео-дневники ополченца Константина Трифонова. Часть 2
10. Освобождение Крыма
General
Complete name : D:\Donbass.Na.linii.ognja.WEB-DLRip\Bonus.01.Pravda.iznutri.Bombezhka.2014.WEB-DLRip.avi
Format : AVI
Format/Info : Audio Video Interleave
File size : 917 MiB
Duration : 1h 16mn
Overall bit rate : 1 672 Kbps
Writing application : VirtualDubMod 1.5.10.3 | www.virtualdub-fr.org || (build 2550/release)
Writing library : VirtualDubMod build 2550/release
Video
ID : 0
Format : MPEG-4 Visual
Format profile : Advanced [email protected]
Format settings, BVOP : 1
Format settings, QPel : No
Format settings, GMC : No warppoints
Format settings, Matrix : Default (H.263)
Codec ID : XVID
Codec ID/Hint : XviD
Duration : 1h 16mn
Bit rate : 1 468 Kbps
Width : 720 pixels
Height : 400 pixels
Display aspect ratio : 16:9
Frame rate : 30.000 fps
Color space : YUV
Chroma subsampling : 4:2:0
Bit depth : 8 bits
Scan type : Progressive
Compression mode : Lossy
Bits/(Pixel*Frame) : 0.170
Stream size : 805 MiB (88%)
Writing library : XviD 73
Audio
ID : 1
Format : AC-3
Format/Info : Audio Coding 3
Mode extension : CM (complete main)
Format settings, Endianness : Big
Codec ID : 2000
Duration : 1h 16mn
Bit rate mode : Constant
Bit rate : 192 Kbps
Channel(s) : 2 channels
Channel positions : Front: L R
Sampling rate : 48.0 KHz
Bit depth : 16 bits
Compression mode : Lossy
Stream size : 105 MiB (11%)
Alignment : Split accross interleaves
Interleave, duration : 33 ms (1.00 video frame)
Interleave, preload duratio : 500 ms
-Скриншоты:--
Download / Скачать

Хотите скачать бесплатно? Зарегистрируйтесь на сайте (ссылка на регистрацию). Pirat.ca - самый быстрый торрент трекер в рунете!

Как скачивать  ·   Что такое торрент  ·   Рейтинг и ограничения

vlasenko2011

Штурман

Пост 21-Мар-2015 18:49 (спустя 10 дней)

[Q] 

Дожили, граждане!!!!!! Раньше документалистику по Чернобыль качали, а теперь смотрим, как наши братья умирают....... Война на наших границах до добра не доведет.......
[Профиль]  [ЛС] 

Сумрак

1660

Пост 21-Мар-2015 21:02 (спустя 2 часа 13 минут)

[Q] 

Согласен! но не нам решать это.. решают за нас .. мы можем просто тупо смотреть на это

_________________
[Профиль]  [ЛС] 

vlasenko2011

Штурман

Пост 21-Мар-2015 21:46 (спустя 44 минуты)

[Q] 

Этот фильм нужно сохранить! Придет время - он будет важным свидетельством в Гаагском трибунале, где в очередной раз будут судить гребаных фашистов!
[Профиль]  [ЛС] 
Показать сообщения:    
Ответить на тему

Текущее время: Сегодня 00:04

Часовой пояс: GMT + 4



Вы не можете начинать темы
Вы не можете отвечать на сообщения
Вы не можете редактировать свои сообщения
Вы не можете удалять свои сообщения
Вы не можете голосовать в опросах
Вы не можете прикреплять файлы к сообщениям
Вы не можете скачивать файлы

▼ Вниз