ML
     
  Уважаемый Гость!
Вы можете поддержать проект и зарегистрироваться у наших партнеров - онлайн-стратегия MyLands. При регистрации в игре Вы получите код, который сможете активировать после регистрации на pirat.ca и получить 1000 дублонов.

Ваш код:
8b752b428cf60a012c159dcae592cd1392170115
 
     

Крым. Путь на родину (Андрей Кондрашов) [2015 г., Документальный, SATRip] (Rus)

Ответить на тему
 
Автор
Сообщение

Пост 15-Мар-2015 20:32

[Q] 

LPPI

-Крым. Путь на родину- Производство: Россия
Год выпуска: 2015 г.
Жанр: Документальный
Продолжительность: 02:24:48
Российская премьера: 16 марта 2015-Перевод: Не требуется-Режиссер: Андрей Кондрашов-Описание: Полнометражная документальная лента была задумана, чтобы сохранить для истории каждый значимый эпизод событий, происходивших в Крыму весной 2014 года. Съемки продолжались 8 месяцев и охватили Севастополь и Форос, Симферополь и Керчь, Ялту и Бахчисарай; Феодосию, Джанкой, Алушту и еще десяток населенных пунктов Крыма. По горячим следам был записан большой разговор с Владимиром Путиным, а потом еще больше полусотни интервью с участниками и свидетелями Крымской весны. С чего все началось? Как Россия получила официальное обращение от легитимного президента Украины с просьбой спасти ему жизнь?
Это была операция, аналогов которой не было в новейшей мировой истории. Все подробности того, как за несколько километров до засады с пулеметами был тайно эвакуирован Виктор Янукович, спустя год открывает сам Владимир Путин, и в фильме этому посвящена детальная реконструкция.- -Качество видео: SATRip
Контейнер: AVI
Видео кодек: XviD
Аудио кодек: AC3
Видео: 720x400 (1.80:1), 25 fps, XviD build 50 ~1805 kbps avg, 0.25 bit/pixel
Аудио: Russian: 48 kHz, AC3 Dolby Digital, 2/0 (L,R) ch, ~192 kbps
Cубтитры: нет-
General
Complete name : D:\Krym-Put.Na.Rodinu.SATRip.avi
Format : AVI
Format/Info : Audio Video Interleave
Format profile : OpenDML
File size : 2.03 GiB
Duration : 2h 24mn
Overall bit rate : 2 005 Kbps
Writing application : VirtualDubMod 1.5.10.3 | www.virtualdub-fr.org || (build 2550/release)
Writing library : VirtualDub build 35491/release
Video
ID : 0
Format : MPEG-4 Visual
Format profile : Advanced [email protected]
Format settings, BVOP : 2
Format settings, QPel : No
Format settings, GMC : No warppoints
Format settings, Matrix : Default (H.263)
Codec ID : XVID
Codec ID/Hint : XviD
Duration : 2h 24mn
Bit rate : 1 800 Kbps
Width : 720 pixels
Height : 400 pixels
Display aspect ratio : 16:9
Frame rate : 25.000 fps
Color space : YUV
Chroma subsampling : 4:2:0
Bit depth : 8 bits
Scan type : Progressive
Compression mode : Lossy
Bits/(Pixel*Frame) : 0.250
Stream size : 1.82 GiB (90%)
Writing library : XviD 1.2.1 (UTC 2008-12-04)
Audio
ID : 1
Format : AC-3
Format/Info : Audio Coding 3
Mode extension : CM (complete main)
Format settings, Endianness : Big
Codec ID : 2000
Duration : 2h 24mn
Bit rate mode : Constant
Bit rate : 192 Kbps
Channel(s) : 2 channels
Channel positions : Front: L R
Sampling rate : 48.0 KHz
Bit depth : 16 bits
Compression mode : Lossy
Stream size : 199 MiB (10%)
Alignment : Split accross interleaves
Interleave, duration : 40 ms (1.00 video frame)
Interleave, preload duratio : 500 ms
-Скриншоты:-- -
Download / Скачать

Хотите скачать бесплатно? Зарегистрируйтесь на сайте (ссылка на регистрацию). Pirat.ca - самый быстрый торрент трекер в рунете!

Как скачивать  ·   Что такое торрент  ·   Рейтинг и ограничения



Последний раз редактировалось: LPPI (2015-03-16 10:33), всего редактировалось 1 раз

Chel_74

Шкипер

Пост 15-Мар-2015 20:41 (спустя 9 минут)

[Q] 

оперативненько )
[Профиль]  [ЛС] 

ss80

Флибустьер

36

Пост 15-Мар-2015 20:49 (спустя 7 минут)

[Q] 

Спасибо!!!
[Профиль]  [ЛС] 

ligthpoker

Лоцман

Пост 15-Мар-2015 20:51 (спустя 1 минута)

[Q] 

скачал кто уже, оно нет?+)
[Профиль]  [ЛС] 

LPPI ®

137534

Пост 15-Мар-2015 20:52 (спустя 1 минута)

[Q] 

656169скачал кто уже, оно нет?+)
Да оно, которое завтра будет идти по телеку.
[Профиль]  [ЛС] 

olezhka

Морской Волк

Пост 15-Мар-2015 21:01 (спустя 9 минут)

[Q] 

Спасибо, качаем!
[Профиль]  [ЛС] 

Loxly

Гроза морей

Пост 15-Мар-2015 22:59 (спустя 1 час 57 минут)

[Q] 

Оперативно. Спасибо, посмотрим.
[Профиль]  [ЛС] 

kyluk76

Лоцман

Пост 16-Мар-2015 00:30 (спустя 1 час 31 минута)

[Q] 

помогу на раздаче Спасибо!!! Всем качать!!!
[Профиль]  [ЛС] 

Woitler

Корсар

650

Пост 16-Мар-2015 01:41 (спустя 1 час 10 минут)

[Q] 

Только что закончил смотреть по Россия 1. Потрясающий фильм!
Очень жду FullHD версию со спутникового ТВ Россия 1 HD.
[Профиль]  [ЛС] 

PITON5328

Морской Волк

Пост 16-Мар-2015 08:20 (спустя 6 часов)

[Q] 

Спасибо смотрел!!!Смотрел по России 1. Лови бочку

_________________
[Профиль]  [ЛС] 

Voldemartop

Легенда

1547

Пост 16-Мар-2015 13:14 (спустя 4 часа)

[Q] 

Благо Дарю LPPI!!!
Автору респект!!! Лови бочку

_________________


МОИ РАЗДАЧИ
[Профиль]  [ЛС] 

NIKROLUNGER

Флибустьер

60

Пост 16-Мар-2015 13:17 (спустя 2 минуты)

[Q] 

Только об этом фильме подумал, а вот он уже ab
Качаю, раздаю.
[Профиль]  [ЛС] 

torr901

Корсар

Пост 16-Мар-2015 13:24 (спустя 7 минут)

[Q] 

Жаль не показали
https://www.youtube.com/watch?v=zTEgEjZktdA
[Профиль]  [ЛС] 

Doctor-ZLO

Гроза морей

438

Пост 17-Мар-2015 22:05 (спустя 1 день 8 часов)

[Q] 

Посмотрю,а то по тел. пропустил. Спасибо!!!

_________________
[Профиль]  [ЛС] 

Loxly

Гроза морей

Пост 18-Мар-2015 18:54 (спустя 20 часов)

[Q] 

Интересное кино. По ходу, не всё интересное показали, но оно и понятно. Да и этого, в общем, достаточно. Кстати, до этого фильма на западе про Крым как-то молчали, всё про Донбас, да минские соглашения. А тут сразу вой поднялся. В общем, всё идёт по плану.
[Профиль]  [ЛС] 

motrin

Морской Волк

45

Пост 07-Май-2015 08:45 (спустя 1 месяц 19 дней)

[Q] 

Смотрел! Но скачаю для истории.. Спасибо!
[Профиль]  [ЛС] 

avn2015

Корсар

Пост 31-Окт-2015 20:24 (спустя 5 месяцев 24 дня)

[Q] 

. Спасибо!!!
[Профиль]  [ЛС] 
Показать сообщения:    
Ответить на тему

Текущее время: Сегодня 06:24

Часовой пояс: GMT + 4



Вы не можете начинать темы
Вы не можете отвечать на сообщения
Вы не можете редактировать свои сообщения
Вы не можете удалять свои сообщения
Вы не можете голосовать в опросах
Вы не можете прикреплять файлы к сообщениям
Вы не можете скачивать файлы

▼ Вниз